Скачать через торрент Графомафия Фильм бесплатно в хорошем качестве torrent

Скачивайте на UnionPeer.org фильмы через торрент без регистрации. Новинки кино в хорошем качестве через торрент. На UnionPeer.org можно скачать через торрент фильмы 2014 и 2015 годов. Самые новые фильмы.

Скачать торрент Графомафия бесплатно через .torrent фильм мультфильм сериал

Если у вас наблюдаются проблемы со скриншотами, переходом по ссылками, скачиванием торрентов - проблемы в блокировщике рекламы AdBlock. #хорошегоДня!


Статистика раздачи
Размер:  3.36 GB   |    Зарегистрирован:  10 дней   |    .torrent скачан:  8 раз   |   
Раздают:  2  
   
Загрузка...
 
Автор Сообщение

Galfimbul

avatar Galfimbul


Графомафия

Страна: Россия
Студия: Студия Крылья
Жанр: комедия
Год выпуска: 2017
Продолжительность: 01:33:35

Перевод: Не требуется
Субтитры: нет
Оригинальная аудиодорожка: русский

Режиссер: Владимир Зайкин, Эдуард Радзюкевич

В ролях: Гоша Куценко, Даниил Спиваковский, Станислав Дужников, Эдуард Радзюкевич, Юрий Стоянов, Дарья Екамасова, Маргарита Шубина, Аристарх Венес, Дарья Мороз, Владимир Епифанцев

Описание: Успешный издатель Надежда Павловна нанимает мечтающих о славе графоманов, чтобы убить талантливого писателя и присвоить его роман, который принесет славу ее обожаемому сыну. Но Шурок равнодушен и к славе, и к литературе. Он любит дорогие машины и красивых девушек. Банда графоманов с энтузиазмом берется за дело. Ведь цена успеха — издание их творений. Но, оказывается, применять кровавые методы в жизни намного сложнее, чем в написании триллера. У каждого свое представление об успехе и счастье. Для одних это встреча с возлюбленным, для других — популярность в соцсетях, а для кого-то предел мечтаний увидеть свое имя на книжной обложке.

Кинопоиск
Sample

Тип релиза: WEB-DL 1080p
Контейнер: MKV

Видео: MPEG4 AVC Video, H264, 16:9, 1920x806, 25 fps, 4648 kbps
Аудио: Russian (AC3, 6 ch, 384 kbps, 16 bits, 48.0 KHz) - оригинал
General
Unique ID : 252394172738159490950927004580366850009 (0xBDE15979427D722BABE37EDF384517D9)
Complete name : L:\Grafomafiya 2017 WEB-DL 1080p.mkv
Format : Matroska
Format version : Version 4 / Version 2
File size : 3.36 GiB
Duration : 1h 33mn
Overall bit rate : 5 134 Kbps
Encoded date : UTC 2017-09-08 08:51:03
Writing application : mkvmerge v6.1.0 ('Old Devil') built on Mar 2 2013 14:32:37
Writing library : libebml v1.3.0 + libmatroska v1.4.0

Video
ID : 1
Format : AVC
Format/Info : Advanced Video Codec
Format profile : High@L4.0
Format settings, CABAC : Yes
Format settings, ReFrames : 5 frames
Codec ID : V_MPEG4/ISO/AVC
Duration : 1h 33mn
Bit rate : 4 648 Kbps
Width : 1 920 pixels
Height : 806 pixels
Display aspect ratio : 2.40:1
Frame rate mode : Constant
Frame rate : 25.000 fps
Color space : YUV
Chroma subsampling : 4:2:0
Bit depth : 8 bits
Scan type : Progressive
Bits/(Pixel*Frame) : 0.120
Stream size : 3.04 GiB (91%)
Language : English
Default : Yes
Forced : No
Color primaries : BT.709
Transfer characteristics : BT.709
Matrix coefficients : BT.709

Audio
ID : 2
Format : AC-3
Format/Info : Audio Coding 3
Mode extension : CM (complete main)
Format settings, Endianness : Big
Codec ID : A_AC3
Duration : 1h 33mn
Bit rate mode : Constant
Bit rate : 384 Kbps
Channel count : 6 channels
Channel positions : Front: L C R, Side: L R, LFE
Sampling rate : 48.0 KHz
Bit depth : 16 bits
Compression mode : Lossy
Stream size : 257 MiB (7%)
Language : Russian
Default : Yes
Forced : No

Menu
00:00:00.000 : en:Глава 1
00:06:41.160 : en:Глава 2
00:12:34.440 : en:Глава 3
00:18:59.039 : en:Глава 4
00:23:31.358 : en:Глава 5
00:28:01.838 : en:Глава 6
00:33:24.397 : en:Глава 7
00:39:58.157 : en:Глава 8
00:46:12.316 : en:Глава 9
00:51:26.595 : en:Глава 10
00:58:21.995 : en:Глава 11
01:04:05.955 : en:Глава 12
01:10:08.634 : en:Глава 13
01:16:05.394 : en:Глава 14
01:21:12.234 : en:Глава 15
01:25:52.834 : en:Глава 16


Трекер:  [ 11-Сен-2017 17:01 ]

  

Скачать .torrent

Размер .torrent файла 17 KB


Размер: 3.36 GB
Хэш (hash) релиза: a1564e3303cbe9c14e9980bda196c1f19697da8b
Подписка на обновления:

Торренты, похожие на Графомафия скачать торрент

Форум Название Автор Размер S L Добавлен
Российские фильмы до 2016 ·· Графомафия (Владимир Зайкин, Эдуард Радзюкевич) [2017, комедия, WEB-DLRip] Galfimbul 15642132481.46 GB 0 0 1504881129

17:32

8-Сен-17

Российские фильмы 2016-2017 (Новинки русского кино) ·· Графомафия (Владимир Зайкин, Эдуард Радзюкевич) [2017, комедия, WEB-DL 1080p] iTunes Galfimbul 36038585213.36 GB 3 0 1504848617

08:30

8-Сен-17

Еще никто не оставлял запись к записи скачать торрент Графомафия . Будь первым!

!Обратная связь