Скачать через торрент музыку Твин Пикс Twin Peaks бесплатно без регистрации torrent

Если у вас наблюдаются проблемы со скриншотами, переходом по ссылками, скачиванием торрентов - проблемы в блокировщике рекламы AdBlock. #хорошегоДня!


Статистика раздачи
Размер:  452 MB   |    Зарегистрирован:  13 дней   |    .torrent скачан:  5 раз   |   
Раздают:  1  
   
Загрузка...
 
Автор Сообщение

Galfimbul

avatar Galfimbul


Твин Пикс / Twin Peaks (Music from the Limited Event Series)

<var class="postImg postImgAligned img-right" title="https://i91.fastpic.ru/big/2017/0908/89/ffd9af5a640...89.jpg">
</var>Жанр: Soundtrack
Композитор: Angelo Badalamenti
Год выпуска диска: 2017
Издатель (лейбл): Rhino
Номер по каталогу: 562527
Аудиокодек: FLAC (*.flac)
Тип рипа: tracks+.cue
Битрейт аудио: lossless
Продолжительность: 01:18:27
Источник: релизер
сайт-источник/ник/другое: JEKA
Наличие сканов в содержимом раздачи: нет

Треклист:
01. Angelo Badalamenti – Twin Peaks Main Theme (Edit) (01:29)
02. Chromatics – Shadow (03:44)
03. The Cactus Blossoms – Mississippi (03:59)
04. Au Revoir Simone – Lark (04:15)
05. Blunted Beatz – I Am (01:45)
06. The Paris Sisters – I Love How You Love Me (02:05)
07. Trouble – Snake Eyes (03:52)
08. Sharon Van Etten – Tarifa (Roadhouse Mix) (04:46)
09. Nine Inch Nails – She's Gone Away (06:00)
10. The Platters – My Prayer (02:45)
11. Rebekah Del Rio – No Stars (07:20)
12. Shawn Colvin – Viva Las Vegas (04:46)
13. James Marshall – Just You (03:35)
14. Booker T. & The M.G.'s – Green Onions (02:52)
15. Lissie – Wild West (Roadhouse Mix) (03:39)
16. ZZ Top – Sharp Dressed Man (04:13)
17. The Veils – Axolotl (Roadhouse Mix) (03:03)
18. Eddie Vedder – Out Of Sand (03:26)
19. Otis Redding – I've Been Loving You Too Long (Live From Monterey Pop) (04:05)
20. Julee Cruise – The World Spins (06:38)
TITLE "Twin Peaks (Music from the Limited Event Series)"PERFORMER "Various Artists"CATALOG 0081227933982REM GENRE "Soundtrack"REM DATE "2017"REM DISCID F9126314REM REPLAYGAIN_ALBUM_GAIN -8.78 dBREM REPLAYGAIN_ALBUM_PEAK 0.989136REM COMPILATION TRUEFILE "01-01 Twin Peaks Main Theme (Edit).mp3" WAVE TRACK 01 AUDIO TITLE "Twin Peaks Main Theme (Edit)" PERFORMER "Angelo Badalamenti" ISRC USRH11701374 REM REPLAYGAIN_TRACK_GAIN -6.55 dB REM REPLAYGAIN_TRACK_PEAK 0.988647 INDEX 01 00:00:00FILE "01-02 Shadow.mp3" WAVE TRACK 02 AUDIO TITLE "Shadow" PERFORMER "Chromatics" ISRC QMMMF1500047 REM REPLAYGAIN_TRACK_GAIN -6.36 dB REM REPLAYGAIN_TRACK_PEAK 0.989044 INDEX 01 00:00:00FILE "01-03 Mississippi.mp3" WAVE TRACK 03 AUDIO TITLE "Mississippi" PERFORMER "The Cactus Blossoms" ISRC USRHR1629305 REM REPLAYGAIN_TRACK_GAIN -8.74 dB REM REPLAYGAIN_TRACK_PEAK 0.975677 INDEX 01 00:00:00FILE "01-04 Lark.mp3" WAVE TRACK 04 AUDIO TITLE "Lark" PERFORMER "Au Revoir Simone" ISRC USA560621634 REM REPLAYGAIN_TRACK_GAIN -5.75 dB REM REPLAYGAIN_TRACK_PEAK 0.966980 INDEX 01 00:00:00FILE "01-05 I Am.mp3" WAVE TRACK 05 AUDIO TITLE "I Am" PERFORMER "Blunted Beatz" ISRC USRH11701378 REM REPLAYGAIN_TRACK_GAIN -8.72 dB REM REPLAYGAIN_TRACK_PEAK 0.971710 INDEX 01 00:00:00FILE "01-06 I Love How You Love Me.mp3" WAVE TRACK 06 AUDIO TITLE "I Love How You Love Me" PERFORMER "The Paris Sisters" ISRC USRH11701379 REM REPLAYGAIN_TRACK_GAIN -8.47 dB REM REPLAYGAIN_TRACK_PEAK 0.820190 INDEX 01 00:00:00FILE "01-07 Snake Eyes.mp3" WAVE TRACK 07 AUDIO TITLE "Snake Eyes" PERFORMER "Trouble" ISRC US5NR1718601 REM REPLAYGAIN_TRACK_GAIN -9.48 dB REM REPLAYGAIN_TRACK_PEAK 0.988861 INDEX 01 00:00:00FILE "01-08 Tarifa (Roadhouse Mix).mp3" WAVE TRACK 08 AUDIO TITLE "Tarifa (Roadhouse Mix)" PERFORMER "Sharon Van Etten" ISRC US38Y1425530 REM REPLAYGAIN_TRACK_GAIN -8.13 dB REM REPLAYGAIN_TRACK_PEAK 0.988861 INDEX 01 00:00:00FILE "01-09 She's Gone Away.mp3" WAVE TRACK 09 AUDIO TITLE "She's Gone Away" PERFORMER "Nine Inch Nails" ISRC TCACU1695142 REM REPLAYGAIN_TRACK_GAIN -10.37 dB REM REPLAYGAIN_TRACK_PEAK 0.968933 INDEX 01 00:00:00FILE "01-10 My Prayer.mp3" WAVE TRACK 10 AUDIO TITLE "My Prayer" PERFORMER "The Platters" ISRC USPR39982230 REM REPLAYGAIN_TRACK_GAIN -10.25 dB REM REPLAYGAIN_TRACK_PEAK 0.918732 INDEX 01 00:00:00FILE "01-11 No Stars.mp3" WAVE TRACK 11 AUDIO TITLE "No Stars" PERFORMER "Rebekah Del Rio" ISRC USRH11701384 REM REPLAYGAIN_TRACK_GAIN -8.12 dB REM REPLAYGAIN_TRACK_PEAK 0.988708 INDEX 01 00:00:00FILE "01-12 Viva Las Vegas.mp3" WAVE TRACK 12 AUDIO TITLE "Viva Las Vegas" PERFORMER "Shawn Colvin" ISRC USSM10603853 REM REPLAYGAIN_TRACK_GAIN -8.79 dB REM REPLAYGAIN_TRACK_PEAK 0.989136 INDEX 01 00:00:00FILE "01-13 Just You.mp3" WAVE TRACK 13 AUDIO TITLE "Just You" PERFORMER "James Marshall" ISRC USRH11701386 REM REPLAYGAIN_TRACK_GAIN -7.01 dB REM REPLAYGAIN_TRACK_PEAK 0.988953 INDEX 01 00:00:00FILE "01-14 Green Onions.mp3" WAVE TRACK 14 AUDIO TITLE "Green Onions" PERFORMER "Booker T. and The MG's" ISRC USAT20000736 REM REPLAYGAIN_TRACK_GAIN -10.35 dB REM REPLAYGAIN_TRACK_PEAK 0.989075 INDEX 01 00:00:00FILE "01-15 Wild West (Roadhouse Mix).mp3" WAVE TRACK 15 AUDIO TITLE "Wild West (Roadhouse Mix)" PERFORMER "Lissie" ISRC QM2HN1700002 REM REPLAYGAIN_TRACK_GAIN -8.53 dB REM REPLAYGAIN_TRACK_PEAK 0.988525 INDEX 01 00:00:00FILE "01-16 Sharp Dressed Man.mp3" WAVE TRACK 16 AUDIO TITLE "Sharp Dressed Man" PERFORMER "ZZ Top" ISRC USWB10301937 REM REPLAYGAIN_TRACK_GAIN -8.71 dB REM REPLAYGAIN_TRACK_PEAK 0.960510 INDEX 01 00:00:00FILE "01-17 Axolotl (Roadhouse Mix).mp3" WAVE TRACK 17 AUDIO TITLE "Axolotl (Roadhouse Mix)" PERFORMER "The Veils" ISRC CAN111700207 REM REPLAYGAIN_TRACK_GAIN -8.68 dB REM REPLAYGAIN_TRACK_PEAK 0.988800 INDEX 01 00:00:00FILE "01-18 Out Of Sand.mp3" WAVE TRACK 18 AUDIO TITLE "Out Of Sand" PERFORMER "Eddie Vedder" ISRC USJYS1700100 REM REPLAYGAIN_TRACK_GAIN -6.47 dB REM REPLAYGAIN_TRACK_PEAK 0.988525 INDEX 01 00:00:00FILE "01-19 I've Been Loving You Too Long (Live From Monterey Pop).mp3" WAVE TRACK 19 AUDIO TITLE "I've Been Loving You Too Long (Live From Monterey Pop)" PERFORMER "Otis Redding" ISRC USAT20104529 REM REPLAYGAIN_TRACK_GAIN -8.53 dB REM REPLAYGAIN_TRACK_PEAK 0.912842 INDEX 01 00:00:00FILE "01-20 The World Spins.mp3" WAVE TRACK 20 AUDIO TITLE "The World Spins" PERFORMER "Julee Cruise" ISRC USWB10101664 REM REPLAYGAIN_TRACK_GAIN -6.86 dB REM REPLAYGAIN_TRACK_PEAK 0.988953 INDEX 01 00:00:00
X Lossless Decoder version 20160920 (149.2)

XLD extraction logfile from 2017-09-10 15:07:47 +0100

Various Artists / Twin Peaks (Music from the Limited Event Series)

Used drive : TSSTcorp BDDVDW SE-506AB (revision TS01)Media type : Pressed CD

Ripper mode : XLD Secure RipperDisable audio cache : OK for the drive with a cache less than 1375KiBMake use of C2 pointers : NORead offset correction : 6Max retry count : 100Gap status : Analyzed, Appended (except HTOA)

TOC of the extracted CD Track | Start | Length | Start sector | End sector --------------------------------------------------------- 1 | 00:00:00 | 01:29:16 | 0 | 6690 2 | 01:29:16 | 03:44:46 | 6691 | 23536 3 | 05:13:62 | 03:59:52 | 23537 | 41513 4 | 09:13:39 | 04:15:51 | 41514 | 60689 5 | 13:29:15 | 01:45:40 | 60690 | 68604 6 | 15:14:55 | 02:05:25 | 68605 | 78004 7 | 17:20:05 | 03:52:27 | 78005 | 95431 8 | 21:12:32 | 04:46:26 | 95432 | 116907 9 | 25:58:58 | 06:00:58 | 116908 | 143965 10 | 31:59:41 | 02:45:48 | 143966 | 156388 11 | 34:45:14 | 07:20:71 | 156389 | 189459 12 | 42:06:10 | 04:46:64 | 189460 | 210973 13 | 46:52:74 | 03:35:07 | 210974 | 227105 14 | 50:28:06 | 02:52:46 | 227106 | 240051 15 | 53:20:52 | 03:39:04 | 240052 | 256480 16 | 56:59:56 | 04:13:59 | 256481 | 275514 17 | 61:13:40 | 03:03:15 | 275515 | 289254 18 | 64:16:55 | 03:26:71 | 289255 | 304775 19 | 67:43:51 | 04:05:24 | 304776 | 323174 20 | 71:49:00 | 06:38:11 | 323175 | 353035

AccurateRip Summary Disc not found in AccurateRip DB.

All Tracks Album gain : -8.78 dB Peak : 0.989136 Statistics Read error : 0 Jitter error (maybe fixed) : 1 Retry sector count : 350 Damaged sector count : 0

Track 01 Filename : /XLD/Twin Peaks - Music From The Limited Event Series/01-01 Twin Peaks Main Theme (Edit).mp3 /XLD/Twin Peaks - Music From The Limited Event Series/01-01 Twin Peaks Main Theme (Edit).flac Pre-gap length : 00:02:00

Track gain : -6.55 dB Peak : 0.988647 CRC32 hash (test run) : 9FE5654C CRC32 hash : 9FE5654C CRC32 hash (skip zero) : F7B5C81F AccurateRip v1 signature : EFE5DCC3 AccurateRip v2 signature : 0A22BA5C ->Track not present in AccurateRip database. Statistics Read error : 0 Jitter error (maybe fixed) : 0 Retry sector count : 0 Damaged sector count : 0

Track 02 Filename : /XLD/Twin Peaks - Music From The Limited Event Series/01-02 Shadow.mp3 /XLD/Twin Peaks - Music From The Limited Event Series/01-02 Shadow.flac

Track gain : -6.36 dB Peak : 0.989044 CRC32 hash (test run) : 603011B0 CRC32 hash : 603011B0 CRC32 hash (skip zero) : 2A2D4989 AccurateRip v1 signature : 920A234B AccurateRip v2 signature : BAFF6ADD ->Track not present in AccurateRip database. Statistics Read error : 0 Jitter error (maybe fixed) : 0 Retry sector count : 0 Damaged sector count : 0

Track 03 Filename : /XLD/Twin Peaks - Music From The Limited Event Series/01-03 Mississippi.mp3 /XLD/Twin Peaks - Music From The Limited Event Series/01-03 Mississippi.flac

Track gain : -8.74 dB Peak : 0.975677 CRC32 hash (test run) : 95AB02DA CRC32 hash : 95AB02DA CRC32 hash (skip zero) : AAA6E37A AccurateRip v1 signature : 46D59C9E AccurateRip v2 signature : DF50DFC9 ->Track not present in AccurateRip database. Statistics Read error : 0 Jitter error (maybe fixed) : 0 Retry sector count : 0 Damaged sector count : 0

Track 04 Filename : /XLD/Twin Peaks - Music From The Limited Event Series/01-04 Lark.mp3 /XLD/Twin Peaks - Music From The Limited Event Series/01-04 Lark.flac

Track gain : -5.75 dB Peak : 0.966980 CRC32 hash (test run) : 9A2555E9 CRC32 hash : 9A2555E9 CRC32 hash (skip zero) : 6D7CBB65 AccurateRip v1 signature : 59AF0BB5 AccurateRip v2 signature : BFA4A219 ->Track not present in AccurateRip database. Statistics Read error : 0 Jitter error (maybe fixed) : 0 Retry sector count : 0 Damaged sector count : 0

Track 05 Filename : /XLD/Twin Peaks - Music From The Limited Event Series/01-05 I Am.mp3 /XLD/Twin Peaks - Music From The Limited Event Series/01-05 I Am.flac

Track gain : -8.72 dB Peak : 0.971710 CRC32 hash (test run) : 3DBB7EC5 CRC32 hash : 3DBB7EC5 CRC32 hash (skip zero) : 3F2F48AC AccurateRip v1 signature : 70ABC44E AccurateRip v2 signature : 15F04804 ->Track not present in AccurateRip database. Statistics Read error : 0 Jitter error (maybe fixed) : 0 Retry sector count : 0 Damaged sector count : 0

Track 06 Filename : /XLD/Twin Peaks - Music From The Limited Event Series/01-06 I Love How You Love Me.mp3 /XLD/Twin Peaks - Music From The Limited Event Series/01-06 I Love How You Love Me.flac

Track gain : -8.47 dB Peak : 0.820190 CRC32 hash (test run) : 23C7F89E CRC32 hash : 23C7F89E CRC32 hash (skip zero) : BB40C53B AccurateRip v1 signature : AB2D06C1 AccurateRip v2 signature : F48F26CC ->Track not present in AccurateRip database. Statistics Read error : 0 Jitter error (maybe fixed) : 0 Retry sector count : 0 Damaged sector count : 0

Track 07 Filename : /XLD/Twin Peaks - Music From The Limited Event Series/01-07 Snake Eyes.mp3 /XLD/Twin Peaks - Music From The Limited Event Series/01-07 Snake Eyes.flac

Track gain : -9.48 dB Peak : 0.988861 CRC32 hash (test run) : 859AA31B CRC32 hash : 859AA31B CRC32 hash (skip zero) : 55C0B042 AccurateRip v1 signature : C98616C9 AccurateRip v2 signature : 078927EF ->Track not present in AccurateRip database. Statistics Read error : 0 Jitter error (maybe fixed) : 0 Retry sector count : 0 Damaged sector count : 0

Track 08 Filename : /XLD/Twin Peaks - Music From The Limited Event Series/01-08 Tarifa (Roadhouse Mix).mp3 /XLD/Twin Peaks - Music From The Limited Event Series/01-08 Tarifa (Roadhouse Mix).flac

Track gain : -8.13 dB Peak : 0.988861 CRC32 hash (test run) : 86F0A1EF CRC32 hash : 86F0A1EF CRC32 hash (skip zero) : A5D029C2 AccurateRip v1 signature : 87E792D9 AccurateRip v2 signature : C0638B9E ->Track not present in AccurateRip database. Statistics Read error : 0 Jitter error (maybe fixed) : 0 Retry sector count : 0 Damaged sector count : 0

Track 09 Filename : /XLD/Twin Peaks - Music From The Limited Event Series/01-09 She's Gone Away.mp3 /XLD/Twin Peaks - Music From The Limited Event Series/01-09 She's Gone Away.flac

Track gain : -10.37 dB Peak : 0.968933 CRC32 hash (test run) : 7F83F01F CRC32 hash : 7F83F01F CRC32 hash (skip zero) : 22900D1D AccurateRip v1 signature : 6CF54272 AccurateRip v2 signature : A3131D60 ->Track not present in AccurateRip database. Statistics Read error : 0 Jitter error (maybe fixed) : 0 Retry sector count : 0 Damaged sector count : 0

Track 10 Filename : /XLD/Twin Peaks - Music From The Limited Event Series/01-10 My Prayer.mp3 /XLD/Twin Peaks - Music From The Limited Event Series/01-10 My Prayer.flac

Track gain : -10.25 dB Peak : 0.918732 CRC32 hash (test run) : 470702EB CRC32 hash : 470702EB CRC32 hash (skip zero) : 40036041 AccurateRip v1 signature : A33A1B17 AccurateRip v2 signature : 372BAD3B ->Track not present in AccurateRip database. Statistics Read error : 0 Jitter error (maybe fixed) : 0 Retry sector count : 0 Damaged sector count : 0

Track 11 Filename : /XLD/Twin Peaks - Music From The Limited Event Series/01-11 No Stars.mp3 /XLD/Twin Peaks - Music From The Limited Event Series/01-11 No Stars.flac

Track gain : -8.12 dB Peak : 0.988708 CRC32 hash (test run) : 199A2F78 CRC32 hash : 199A2F78 CRC32 hash (skip zero) : 237ADADC AccurateRip v1 signature : F87E8DE2 AccurateRip v2 signature : 7AA7F84E ->Track not present in AccurateRip database. Statistics Read error : 0 Jitter error (maybe fixed) : 0 Retry sector count : 0 Damaged sector count : 0

Track 12 Filename : /XLD/Twin Peaks - Music From The Limited Event Series/01-12 Viva Las Vegas.mp3 /XLD/Twin Peaks - Music From The Limited Event Series/01-12 Viva Las Vegas.flac

Track gain : -8.79 dB Peak : 0.989136 CRC32 hash (test run) : FDB094C5 CRC32 hash : FDB094C5 CRC32 hash (skip zero) : 57193654 AccurateRip v1 signature : AC489916 AccurateRip v2 signature : C2ED6423 ->Track not present in AccurateRip database. Statistics Read error : 0 Jitter error (maybe fixed) : 0 Retry sector count : 0 Damaged sector count : 0

Track 13 Filename : /XLD/Twin Peaks - Music From The Limited Event Series/01-13 Just You.mp3 /XLD/Twin Peaks - Music From The Limited Event Series/01-13 Just You.flac

Track gain : -7.01 dB Peak : 0.988953 CRC32 hash (test run) : 97CFAC36 CRC32 hash : 97CFAC36 CRC32 hash (skip zero) : A0C1416D AccurateRip v1 signature : 8CB9955C AccurateRip v2 signature : B1B34C31 ->Track not present in AccurateRip database. Statistics Read error : 0 Jitter error (maybe fixed) : 0 Retry sector count : 0 Damaged sector count : 0

Track 14 Filename : /XLD/Twin Peaks - Music From The Limited Event Series/01-14 Green Onions.mp3 /XLD/Twin Peaks - Music From The Limited Event Series/01-14 Green Onions.flac

Track gain : -10.35 dB Peak : 0.989075 CRC32 hash (test run) : B94373A8 CRC32 hash : B94373A8 CRC32 hash (skip zero) : 42DC64C4 AccurateRip v1 signature : 8DCDD4F9 AccurateRip v2 signature : BF584D24 ->Track not present in AccurateRip database. Statistics Read error : 0 Jitter error (maybe fixed) : 0 Retry sector count : 0 Damaged sector count : 0

Track 15 Filename : /XLD/Twin Peaks - Music From The Limited Event Series/01-15 Wild West (Roadhouse Mix).mp3 /XLD/Twin Peaks - Music From The Limited Event Series/01-15 Wild West (Roadhouse Mix).flac

Track gain : -8.53 dB Peak : 0.988525 CRC32 hash (test run) : 757FA091 CRC32 hash : 757FA091 CRC32 hash (skip zero) : 3A504CA6 AccurateRip v1 signature : 5C81741F AccurateRip v2 signature : FDC0F6E9 ->Track not present in AccurateRip database. Statistics Read error : 0 Jitter error (maybe fixed) : 0 Retry sector count : 0 Damaged sector count : 0

Track 16 Filename : /XLD/Twin Peaks - Music From The Limited Event Series/01-16 Sharp Dressed Man.mp3 /XLD/Twin Peaks - Music From The Limited Event Series/01-16 Sharp Dressed Man.flac

Track gain : -8.71 dB Peak : 0.960510 CRC32 hash (test run) : 1E2605B7 CRC32 hash : 1E2605B7 CRC32 hash (skip zero) : 76C728E3 AccurateRip v1 signature : F40D2B5A AccurateRip v2 signature : 1D7BF946 ->Track not present in AccurateRip database. Statistics Read error : 0 Jitter error (maybe fixed) : 0 Retry sector count : 0 Damaged sector count : 0

Track 17 Filename : /XLD/Twin Peaks - Music From The Limited Event Series/01-17 Axolotl (Roadhouse Mix).mp3 /XLD/Twin Peaks - Music From The Limited Event Series/01-17 Axolotl (Roadhouse Mix).flac

Track gain : -8.68 dB Peak : 0.988800 CRC32 hash (test run) : 7D8068C6 CRC32 hash : 7D8068C6 CRC32 hash (skip zero) : 8087F7CB AccurateRip v1 signature : 866CE98E AccurateRip v2 signature : 6A4EC4B9 ->Track not present in AccurateRip database. Statistics Read error : 0 Jitter error (maybe fixed) : 0 Retry sector count : 0 Damaged sector count : 0

Track 18 Filename : /XLD/Twin Peaks - Music From The Limited Event Series/01-18 Out Of Sand.mp3 /XLD/Twin Peaks - Music From The Limited Event Series/01-18 Out Of Sand.flac

Track gain : -6.47 dB Peak : 0.988525 CRC32 hash (test run) : ABCE4C1D CRC32 hash : ABCE4C1D CRC32 hash (skip zero) : 5065E5E5 AccurateRip v1 signature : B6BE6968 AccurateRip v2 signature : E680A6BF ->Track not present in AccurateRip database. Statistics Read error : 0 Jitter error (maybe fixed) : 0 Retry sector count : 0 Damaged sector count : 0

Track 19 Filename : /XLD/Twin Peaks - Music From The Limited Event Series/01-19 I've Been Loving You Too Long (Live From Monterey Pop).mp3 /XLD/Twin Peaks - Music From The Limited Event Series/01-19 I've Been Loving You Too Long (Live From Monterey Pop).flac

Track gain : -8.53 dB Peak : 0.912842 CRC32 hash (test run) : 3282C039 CRC32 hash : 3282C039 CRC32 hash (skip zero) : 3A40D493 AccurateRip v1 signature : 2EC4ED01 AccurateRip v2 signature : 8FE07B21 ->Track not present in AccurateRip database. Statistics Read error : 0 Jitter error (maybe fixed) : 1 Retry sector count : 350 Damaged sector count : 0

Track 20 Filename : /XLD/Twin Peaks - Music From The Limited Event Series/01-20 The World Spins.mp3 /XLD/Twin Peaks - Music From The Limited Event Series/01-20 The World Spins.flac

Track gain : -6.86 dB Peak : 0.988953 CRC32 hash (test run) : 490E4958 CRC32 hash : 490E4958 CRC32 hash (skip zero) : 1B4208DD AccurateRip v1 signature : 2016DA3D AccurateRip v2 signature : 45B47C64 ->Track not present in AccurateRip database. Statistics Read error : 0 Jitter error (maybe fixed) : 0 Retry sector count : 0 Damaged sector count : 0

No errors occurred

End of status report


Трекер:  [ 11-Сен-2017 15:06 ]

  

Скачать .torrent

Размер .torrent файла 37 KB


Размер: 452 MB
Хэш (hash) релиза: afa74822893ea08821b19633194eb04d4a36e6e7

Торренты, похожие на Твин Пикс Twin Peaks скачать торрент

Форум Название Автор Размер S L Добавлен
Саундтреки к фильмам и мультфильмам (lossless) ·· (Score/TV) Твин Пикс / Twin Peaks (Limited Event Series Soundtrack) (Angelo Badalamenti) - 2017, FLAC (tracks+.cue), lossless Galfimbul 401523190383 MB 2 0 1505463714

11:21

15-Сен-17

Саундтреки к фильмам и мультфильмам (lossless) ·· (Score) Твин Пикс / Twin Peaks (Music from the Limited Event Series)- 2017, FLAC (tracks+.cue), lossless Galfimbul 474327333452 MB 2 0 1505033197

11:46

10-Сен-17

Саундтреки к фильмам и мультфильмам (mp3) ·· (Score) Твин Пикс / Twin Peaks (Limited Event Series Soundtrack) (by Angelo Badalamenti) - 2017, MP3, 320 kbps Galfimbul 188814345180 MB 2 0 1504878370

16:46

8-Сен-17

Саундтреки к фильмам и мультфильмам (mp3) ·· (Soundtrack) Твин Пикс / Twin Peaks (Music from the Limited Event Series) - 2017, MP3, 320 kbps Galfimbul 190053989181 MB 0 0 1504878361

16:46

8-Сен-17

Саундтреки к фильмам и мультфильмам (lossless) ·· (Score / Ambient, Psychedelic, Blues) [LP] [24/96] Твин Пикс / Twin Peaks (by Angelo Badalamenti) - 1990, FLAC (tracks), lossless Galfimbul 1016959853970 MB 2 0 1292268641

22:30

13-Дек-10

Саундтреки к фильмам и мультфильмам (mp3) ·· (Soundtrack/TV) A.Badalamenti & D.Lynch - Твин Пикс / Twin Peaks Season Two Music And More - 2007, MP3, 320 kbps Galfimbul 172285875164 MB 0 0 1292265236

21:33

13-Дек-10

Саундтреки к фильмам и мультфильмам (mp3) ·· (Score) Твин Пикс / Twin Peaks (Angelo Badalamenti) - 1990, MP3, 320 kbps Phoenix 121647002116 MB 0 0 1292265053

21:30

13-Дек-10

Саундтреки ·· (Score) Твин Пикс / The Twin Peaks (The Twin Peaks Archive) (by Angelo Badalamenti & David Lynch) {WEB} - 2011 (1990-1992), FLAC (tracks), lossless Galfimbul 26836641982.5 GB 2 0 1356622860

18:41

27-Дек-12

Саундтреки ·· (Score) Твин Пикс / The Twin Peaks (The Twin Peaks Archive) (by Angelo Badalamenti & David Lynch) - 2011, MP3, 320 kbps Galfimbul 14156227811.32 GB 0 0 1356814380

23:53

29-Дек-12

Саундтреки к фильмам и мультфильмам (mp3) ·· (Soundtrack) Твин Пикс (3 сезон) / Twin Peakc (3 season) (Twin Peaks OST season 3) - 2017, MP3, 320 kbps Galfimbul 117557858112 MB 0 0 1495709336

13:48

25-Май-17

Саундтреки к фильмам и мультфильмам (lossless) ·· (Dream-Pop, Trip-Hop) Julee Cruise (Джули Круз) - Falling (The Theme From Twin Peaks, Тема из сериала "Твин Пикс") (Single) - 1990, APE (image+.cue), lossless AqvaGen 7666884473 MB 0 0 1292268500

22:28

13-Дек-10

Саундтреки к фильмам и мультфильмам (mp3) ·· (Score) Твин Пикс: Сквозь огонь / Twin Peaks: Fire Walk With Me (Angelo Badalamenti) - 1992 [MP3 320 kbps] Mos 148740581142 MB 0 0 1291107472

11:57

30-Ноя-10

Еще никто не оставлял запись к записи скачать торрент Твин Пикс Twin Peaks . Будь первым!

!Обратная связь