Скачать через торрент Ольга Сезон: 1 Фильм бесплатно в хорошем качестве torrent

Скачивайте на UnionPeer.org фильмы через торрент без регистрации. Новинки кино в хорошем качестве через торрент. На UnionPeer.org можно скачать через торрент фильмы 2014 и 2015 годов. Самые новые фильмы.

Скачать торрент Ольга Сезон: 1 бесплатно через .torrent фильм мультфильм сериал

Если у вас наблюдаются проблемы со скриншотами, переходом по ссылками, скачиванием торрентов - проблемы в блокировщике рекламы AdBlock. #хорошегоДня!


Статистика раздачи
Размер:  17.45 GB   |    Зарегистрирован:  2 месяца 12 дней   |    .torrent скачан:  123 раза   |   
Раздают:  1  
   
Загрузка...
 
Автор Сообщение

Galfimbul

avatar Galfimbul


Ольга

Год выпуска: 2016
Производство: Good Story Media
Жанр: комедия, драма
Продолжительность: ~00:24:00 серия
Субтитры: нет

Режиссёр: Алексей Нужный, Игорь Волошин

В ролях: Яна Троянова, Ксения Суркова, Сергей Романович, Мухаммед Абу-Ризик, Алина Алексеева, Василий Кортуков, Максим Костромыкин, Филипп Ершов, Александр Шам, Светлана Костюкова, Ирина Цывина, Сергей Гусенков, Тимофей Зайцев

Описание: Главная героиня воспитывает двух детей от разных браков, заботится об отце-алкоголике и пытается наладить личную жизнь. Старшая дочь Анька учится в ПТУ, думает, что она единственный адекватный член семьи и в её жизни все будет по-другому, младший сын Тимофей, чей отец вернулся к первой семье в Азербайджан, считает, что он уже мужчина, хотя ему всего лишь 11 лет, отец Ольги, бывший футболист, крепко выпивает и постоянно врет, а сестра Ленка пытается жить за счет мужчин, в основном — женатых. Вечно спасая родственников от неприятностей, Ольга живет чужой жизнью и редко думает о себе — до тех пор, пока в нее не влюбляется молодой и положительный водитель газели «Ритуал» Гриша.

Реклама: Нет.

Все раздачи сериала
Sample

Качество: HDTV 1080i
Формат: TS
Видео кодек: AVC
Аудио кодек: MP2
Видео: MPEG4 AVC Video, H264, 16:9, 1920x1080, 25 fps, ~6200 kbps
Аудио: MP2, 2 ch, 192 kbps, 16 bits, 48.0 KHz
General
ID : 1 (0x1)
Complete name : E:\Ольга 1 сезон 2016 HDTV 1080i\Olga.01.(01.seriya.iz.20).2016.HDTV.(1080i).Nikolspup.ts
Format : MPEG-TS
File size : 1.00 GiB
Duration : 21mn 7s
Overall bit rate mode : Variable
Overall bit rate : 6 809 Kbps

Video
ID : 67 (0x43)
Menu ID : 1 (0x1)
Format : AVC
Format/Info : Advanced Video Codec
Format profile : High@L4.0
Format settings, CABAC : Yes
Format settings, ReFrames : 4 frames
Format settings, GOP : M=4, N=28
Codec ID : 27
Duration : 21mn 7s
Bit rate : 6 279 Kbps
Width : 1 920 pixels
Height : 1 080 pixels
Display aspect ratio : 16:9
Frame rate : 25.000 fps
Standard : Component
Color space : YUV
Chroma subsampling : 4:2:0
Bit depth : 8 bits
Scan type : Interlaced
Scan order : Top Field First
Bits/(Pixel*Frame) : 0.121
Stream size : 949 MiB (92%)
Color primaries : BT.709
Transfer characteristics : BT.709
Matrix coefficients : BT.709

Audio
ID : 68 (0x44)
Menu ID : 1 (0x1)
Format : MPEG Audio
Format version : Version 1
Format profile : Layer 2
Codec ID : 3
Duration : 21mn 7s
Bit rate mode : Constant
Bit rate : 192 Kbps
Channel count : 2 channels
Sampling rate : 48.0 KHz
Compression mode : Lossy
Delay relative to video : -40ms
Stream size : 29.0 MiB (3%)
Language : Russian


Трекер:  [ 11-Сен-2017 13:48 ]

  

Скачать .torrent

Размер .torrent файла 89 KB


Размер: 17.45 GB
Хэш (hash) релиза: 0a07faed1d868e82d0d4ed51d6759c153b434ccf
Подписка на обновления:

Торренты, похожие на Ольга Сезон: 1 скачать торрент

Форум Название Автор Размер S L Добавлен
Российские сериалы ·· Ольга / Сезон: 1 / Серии: 1-20 из 20 (Алексей Нужный, Игорь Волошин) [2016, Комедия, драма, WEBRip] Galfimbul 67335331846.27 GB 0 0 1475695002

22:16

5-Окт-16

Российские сериалы ·· Ольга / Сезон: 1 / Серии: 1-20 из 20 (Алексей Нужный, Игорь Волошин) [2016, Комедия, драма, WEBRip 720p] Galfimbul 1256720403111.7 GB 3 0 1475694985

22:16

5-Окт-16

Российские сериалы ·· Дыши со мной / Сезон: 1 Серии: 1 - 20 из 20 (Ольга Перуновская) [2010, Мелодрама, 2 DVD9] R5 dnickn 1595054489614.86 GB 0 0 1302470231

00:17

11-Апр-11

Российские сериалы ·· Ольга / Сезон: 1 / Серии: 1-19 из 20 (Алексей Нужный, Игорь Волошин) [2016, Комедия, драма, WEBRip 720p] Galfimbul 1190764555211.09 GB 0 0 1475610098

22:41

4-Окт-16

Российские сериалы ·· Ольга / Сезон: 1 / Серии: 1-19 из 20 (Алексей Нужный, Игорь Волошин) [2016, Комедия, драма, WEBRip] Galfimbul 63875358725.95 GB 0 0 1475608403

22:13

4-Окт-16

Российские сериалы ·· Ольга / Сезон: 1 / Серии: 1-18 из 20 (Алексей Нужный, Игорь Волошин) [2016, Комедия, драма, WEBRip 720p] Galfimbul 1127777668110.5 GB 0 0 1475523684

22:41

3-Окт-16

Российские сериалы ·· Ольга / Сезон: 1 / Серии: 1-18 из 20 (Алексей Нужный, Игорь Волошин) [2016, Комедия, драма, WEBRip] Galfimbul 60416266245.63 GB 0 0 1475522060

22:14

3-Окт-16

Российские сериалы ·· Ольга / Сезон: 1 / Серии: 1-17 из 20 (Алексей Нужный, Игорь Волошин) [2016, Комедия, драма, WEBRip] Galfimbul 56955187205.3 GB 0 0 1475177893

22:38

29-Сен-16

Российские сериалы ·· Ольга / Сезон: 1 / Серии: 1-17 из 20 (Алексей Нужный, Игорь Волошин) [2016, Комедия, драма, WEBRip 720p] Galfimbul 106079298799.88 GB 0 0 1475177851

22:37

29-Сен-16

Российские сериалы ·· Ольга / Сезон: 1 / Серии: 1-16 из 20 (Алексей Нужный, Игорь Волошин) [2016, Комедия, драма, WEBRip 720p] Galfimbul 99718838469.29 GB 0 0 1475091796

22:43

28-Сен-16

Российские сериалы ·· Ольга / Сезон: 1 / Серии: 1-16 из 20 (Алексей Нужный, Игорь Волошин) [2016, Комедия, драма, WEBRip] Galfimbul 53493493764.98 GB 0 0 1475090183

22:16

28-Сен-16

Российские сериалы ·· Ольга / Сезон: 1 / Серии: 1-15 из 20 (Алексей Нужный, Игорь Волошин) [2016, Комедия, драма, WEBRip] Galfimbul 50346024964.69 GB 0 0 1475003592

22:13

27-Сен-16

Российские сериалы ·· Ольга / Сезон: 1 / Серии: 1-15 из 20 (Алексей Нужный, Игорь Волошин) [2016, Комедия, драма, WEBRip 720p] Galfimbul 93773744948.73 GB 0 0 1475003583

22:13

27-Сен-16

Российские сериалы ·· Ольга / Сезон: 1 / Серии: 1-14 из 20 (Алексей Нужный, Игорь Волошин) [2016, Комедия, драма, WEBRip] Galfimbul 46675169284.35 GB 0 0 1474976673

14:44

27-Сен-16

Российские сериалы ·· Ольга / Сезон: 1 / Серии: 1-14 из 20 (Алексей Нужный, Игорь Волошин) [2016, Комедия, драма, WEBRip 720p] Galfimbul 87018227638.1 GB 0 0 1474976652

14:44

27-Сен-16

Российские сериалы ·· Ольга / Сезон: 1 / Серии: 1-14 из 20 (Алексей Нужный, Игорь Волошин) [2016, Комедия, драма, WEBRip] Galfimbul 46675251204.35 GB 0 0 1474920705

23:11

26-Сен-16

Российские сериалы ·· Ольга / Сезон: 1 / Серии: 1-14 из 20 (Алексей Нужный, Игорь Волошин) [2016, Комедия, драма, WEBRip 720p] Galfimbul 86982263258.1 GB 0 0 1474920695

23:11

26-Сен-16

Российские сериалы ·· Ольга / Сезон: 1 / Серии: 1-14 из 20 (Алексей Нужный, Игорь Волошин) [2016, Комедия, драма, WEBRip] Galfimbul 46673960964.35 GB 0 0 1474917177

22:12

26-Сен-16

Российские сериалы ·· Ольга / Сезон: 1 / Серии: 1-13 из 20 (Алексей Нужный, Игорь Волошин) [2016, Комедия, драма, WEBRip 720p] Galfimbul 80403648057.49 GB 0 0 1474573395

22:43

22-Сен-16

Еще никто не оставлял запись к записи скачать торрент Ольга Сезон: 1 . Будь первым!

!Обратная связь