Скачать через торрент Ольга Сезон: 2 Фильм бесплатно в хорошем качестве torrent

Скачивайте на UnionPeer.org фильмы через торрент без регистрации. Новинки кино в хорошем качестве через торрент. На UnionPeer.org можно скачать через торрент фильмы 2014 и 2015 годов. Самые новые фильмы.

Скачать торрент Ольга Сезон: 2 бесплатно через .torrent фильм мультфильм сериал

Если у вас наблюдаются проблемы со скриншотами, переходом по ссылками, скачиванием торрентов - проблемы в блокировщике рекламы AdBlock. #хорошегоДня!


Статистика раздачи
Размер:  5.1 GB   |    Зарегистрирован:  8 дней   |    .torrent скачан:  58 раз   |   
Раздают:  1  
   
Загрузка...
 
Автор Сообщение

Galfimbul

avatar Galfimbul


Ольга

Год выпуска: 2017
Производство: Good Story Media
Жанр: комедия, драма
Продолжительность: ~00:24:00 серия
Субтитры: нет

Режиссёр: Алексей Нужный, Игорь Волошин

В ролях: Яна Троянова, Ксения Суркова, Сергей Романович, Мухаммед Абу-Ризик, Алина Алексеева, Василий Кортуков, Максим Костромыкин, Филипп Ершов, Александр Шам, Светлана Костюкова, Ирина Цывина, Сергей Гусенков, Тимофей Зайцев

Описание: Главная героиня воспитывает двух детей от разных браков, заботится об отце-алкоголике и пытается наладить личную жизнь. Старшая дочь Анька учится в ПТУ, думает, что она единственный адекватный член семьи и в её жизни все будет по-другому, младший сын Тимофей, чей отец вернулся к первой семье в Азербайджан, считает, что он уже мужчина, хотя ему всего лишь 11 лет, отец Ольги, бывший футболист, крепко выпивает и постоянно врет, а сестра Ленка пытается жить за счет мужчин, в основном — женатых. Вечно спасая родственников от неприятностей, Ольга живет чужой жизнью и редко думает о себе — до тех пор, пока в нее не влюбляется молодой и положительный водитель газели «Ритуал» Гриша.

Реклама: Нет.

Все раздачи сериала
Sample

Качество: HDTV 1080i
Формат: TS
Видео кодек: AVC
Аудио кодек: MP2
Видео: MPEG4 AVC Video, H264, 16:9, 1920x1080, 25 fps, ~6500 kbps
Аудио: MP2, 2 ch, 192 kbps, 16 bits, 48.0 KHz
Раздача ведётся путём добавления новых серий, при каждом добавлении создаётся новый торрент. Чтобы начать докачку новой серии, пользователям необходимо сделать следующее:

- Остановить скачивание.
- Удалить старый торрент у себя из клиента (старые серии удалять не надо).
- Скачать новый торрент и запустить его у себя в клиенте вместо старого, при этом указать клиенту путь в старую папку куда и должно происходить скачивание новых серий.

Ваш клиент при этом должен произвести хеширование (проверку) старой папки (если не производит сам - помогите ему сделать это), и будет докачивать только те серии которых у вас ещё нет. Старые серии при этом не удаляются, а продолжают раздаваться!
Если вы уже удалили старые серии, то предотвратить повторную закачку старых серий можно, отжав галочку в соответствующих местах при запуске нового торрента. По возможности, желательно не удалять старые серии как можно дольше, чтобы релизер не столько продолжал раздавать старые серии, а смог сконцентрироваться на новых.
General
ID : 1 (0x1)
Complete name : E:\в магазин\Ольга 2 сезон 2017 HDTV 1080i\Olga.s02.(01.seriya).2017.HDTV.(1080i).Nikolspup.ts
Format : MPEG-TS
File size : 1.13 GiB
Duration : 22mn 50s
Overall bit rate mode : Variable
Overall bit rate : 7 090 Kbps

Video
ID : 207 (0xCF)
Menu ID : 2207 (0x89F)
Format : AVC
Format/Info : Advanced Video Codec
Format profile : High@L4.0
Format settings, CABAC : Yes
Format settings, ReFrames : 4 frames
Codec ID : 27
Duration : 22mn 49s
Bit rate : 6 546 Kbps
Width : 1 920 pixels
Height : 1 080 pixels
Display aspect ratio : 16:9
Frame rate : 25.000 fps
Standard : Component
Color space : YUV
Chroma subsampling : 4:2:0
Bit depth : 8 bits
Scan type : Interlaced
Scan order : Top Field First
Bits/(Pixel*Frame) : 0.126
Stream size : 1.04 GiB (92%)
Color primaries : BT.709
Transfer characteristics : BT.709
Matrix coefficients : BT.709

Audio
ID : 307 (0x133)
Menu ID : 2207 (0x89F)
Format : MPEG Audio
Format version : Version 1
Format profile : Layer 2
Codec ID : 3
Duration : 22mn 50s
Bit rate mode : Constant
Bit rate : 192 Kbps
Channel count : 2 channels
Sampling rate : 48.0 KHz
Compression mode : Lossy
Delay relative to video : -80ms
Stream size : 31.4 MiB (3%)
Language : Russian


Трекер:  [ 11-Сен-2017 13:48 ]

  

Скачать .torrent

Размер .torrent файла 26 KB


Размер: 5.1 GB
Хэш (hash) релиза: 1851c92ca71b511daa41b34c3f698de0361c4aa3
Подписка на обновления:

Еще никто не оставлял запись к записи скачать торрент Ольга Сезон: 2 . Будь первым!

!Обратная связь