Скачать через торрент Настоящая Кровь True Blood Фильм бесплатно в хорошем качестве torrent

Скачивайте на UnionPeer.org фильмы через торрент без регистрации. Новинки кино в хорошем качестве через торрент. На UnionPeer.org можно скачать через торрент фильмы 2014 и 2015 годов. Самые новые фильмы.

Скачать торрент Настоящая Кровь True Blood бесплатно через .torrent фильм мультфильм сериал

Если у вас наблюдаются проблемы со скриншотами, переходом по ссылками, скачиванием торрентов - проблемы в блокировщике рекламы AdBlock. #хорошегоДня!


Статистика раздачи
Размер:  65.03 GB   |    Зарегистрирован:  11 дней   |    .torrent скачан:  5 раз   |   
Раздают:  1  
   
Загрузка...
 
Автор Сообщение

Galfimbul

avatar Galfimbul


Настоящая Кровь 4 Сезон / True Blood Season 4

Год выпуска: 2011
Страна: США
Жанр: Драма, Ужасы, Фэнтези, Фантастика
Продолжительность: 12 x ~55 мин.

Перевод: Профессиональный (двухголосный закадровый) Кубик в Кубе

Режиссёр: Майкл Леманн, Джон Дал, Ник Гомес, Энтони М. Хемингуэй, Скотт Уинант, Даниэль Минахан
В ролях: Анна Пакуин, Стивен Мойер, Сэм Траммелл, Райан Квантен, Рутина Уэсли, Кристофер Бауэр, Нелсан Эллис, Джим Пэррак, Кэрри Престон и др.

Описание: События разворачиваются в небольшом городке в пригороде Нового Орлеана. С тех пор, как японцы изобрели синтетическую кровь «True Blood», у вампиров отпала необходимость убивать простых смертных. Два года назад вампиры покинули свои гробы и официально заявили о своих правах. Но как водится, не все люди оказались готовы к этому, и не все вампиры были рады отказаться от привычного лакомства. Сьюки Стакхаус — обычная официантка из пригородного кафе, наделенная способностью читать мысли окружающих, знакомится с «хорошим» вампиром Биллом Комптоном. И сразу приобретает много врагов среди «плохих парней»

Ссылка на предыдущие и альтернативные раздачи

Качество: HDTVRip 1080i
Контейнер: MKV
Видео: MPEG-4 AVC, 1280x720 (16:9), 29 fps, ~12.8 mbps, 0.201 bit/pixel
Аудио: AC3, 48 kHz, 5.1 ch, 384 kbps| Кубик в Кубе (Русский)
Аудио 2: AC3, 48 kHz, 5.1 ch, 384 kbps (Английский)
Субтитры: Английские, Русские
Реклама: Нет

Раздачи Настоящей Крови в HD Качестве: 1 Сезон | 2 Сезон | 3 Сезон | 4 Сезон | 5 Сезон | 6 Сезон | 7 Сезон
1) «She's Not There» - «Её здесь нет»
2) «You Smell Like Dinner» - «Ты пахнешь словно ужин»
3) «If You Love Me, Why Am I Dyin'?» - ««Почему твоя любовь убивает меня?»
4) «I'm Alive and On Fire» - «Я жив и весь горю»
5) «Me and the Devil» - «Я и Сатана»
6) «I Wish I Was the Moon» - «О, если бы я был луной»
7) «Cold Grey Light of Dawn» - «Холодный серый свет поражения»
8) «Spellbound» - «Очарованный»
9) «Let's Get Out of Here» - «Давай уйдём отсюда»
10) «Burning Down the House» - «Сжигая дом»
11) «Soul of Fire» - «Пылкая душа»
12) «And When I Die» - «И когда я умру»
General
Unique ID : 191725158792925237037381865441791282678 (0x903CEC251ABE65CAB6F17AA0E28B8DF6)
Complete name : C:\Надежда\True.Blood.S04.1080i.HDTV.Rus.Eng.HDCLUB\True.Blood.S04E01.1080i.HDTV.Rus.Eng.HDCLUB.mkv
Format : Matroska
Format version : Version 2
File size : 5.69 GiB
Duration : 1h 0mn
Overall bit rate mode : Variable
Overall bit rate : 13.5 Mbps
Movie name : True Blood [Season 4] (2011) - Release for HDCLUB by vlaluk
Encoded date : UTC 2011-07-19 04:58:20
Writing application : mkvmerge v4.8.0 ('I Got The...') сборка от May 24 2011 03:12:58
Writing library : libebml v1.2.0 + libmatroska v1.1.0

Video
ID : 1
Format : MPEG Video
Format version : Version 2
Format profile : Main@High
Format settings, BVOP : Yes
Format settings, Matrix : Default
Format settings, picture st : Frame
Codec ID : V_MPEG2
Codec ID/Info : MPEG 1 or 2 Video
Duration : 1h 0mn
Bit rate mode : Variable
Bit rate : 12.5 Mbps
Maximum bit rate : 18.0 Mbps
Width : 1 920 pixels
Height : 1 080 pixels
Display aspect ratio : 16:9
Frame rate mode : Constant
Frame rate : 29.970 (30000/1001) fps
Color space : YUV
Chroma subsampling : 4:2:0
Bit depth : 8 bits
Scan type : Interlaced
Scan order : Bottom Field First
Compression mode : Lossy
Bits/(Pixel*Frame) : 0.201
Time code of first frame : 00:00:00;00
Time code source : Group of pictures header
Stream size : 5.25 GiB (92%)
Title : Episode 1: She's Not There - Release for HDCLUB by vlaluk
Language : English
Default : Yes
Forced : No

Audio #1
ID : 2
Format : AC-3
Format/Info : Audio Coding 3
Mode extension : CM (complete main)
Format settings, Endianness : Big
Codec ID : A_AC3
Duration : 1h 0mn
Bit rate mode : Constant
Bit rate : 384 Kbps
Channel(s) : 6 channels
Channel positions : Front: L C R, Side: L R, LFE
Sampling rate : 48.0 KHz
Frame rate : 31.250 fps (1536 spf)
Compression mode : Lossy
Stream size : 166 MiB (3%)
Title : AC3 5.1 @ 384 kbps @ Кубик в Кубе
Language : Russian
Default : Yes
Forced : No

Audio #2
ID : 3
Format : AC-3
Format/Info : Audio Coding 3
Mode extension : CM (complete main)
Format settings, Endianness : Big
Codec ID : A_AC3
Duration : 1h 0mn
Bit rate mode : Constant
Bit rate : 384 Kbps
Channel(s) : 2 channels
Channel positions : Front: L R
Sampling rate : 48.0 KHz
Frame rate : 31.250 fps (1536 spf)
Compression mode : Lossy
Stream size : 166 MiB (3%)
Title : AC3 5.1 @ 384 kbps
Language : English
Default : No
Forced : No

Text #1
ID : 4
Format : UTF-8
Codec ID : S_TEXT/UTF8
Codec ID/Info : UTF-8 Plain Text
Title : Russian @ SRT @ TrueTransLate
Language : Russian
Default : No
Forced : No

Text #2
ID : 5
Format : UTF-8
Codec ID : S_TEXT/UTF8
Codec ID/Info : UTF-8 Plain Text
Title : English @ SRT
Language : English
Default : No
Forced : No


Трекер:  [ 11-Сен-2017 06:54 ]

  

Скачать .torrent

Размер .torrent файла 164 KB


Размер: 65.03 GB
Хэш (hash) релиза: 6cdf26a1c45528f20fbdf88e7a5ee091fd33546a
Подписка на обновления:

Еще никто не оставлял запись к записи скачать торрент Настоящая Кровь True Blood . Будь первым!

!Обратная связь