Скачать через торрент Настоящая Кровь True Blood Фильм бесплатно в хорошем качестве torrent

Скачивайте на UnionPeer.org фильмы через торрент без регистрации. Новинки кино в хорошем качестве через торрент. На UnionPeer.org можно скачать через торрент фильмы 2014 и 2015 годов. Самые новые фильмы.

Скачать торрент Настоящая Кровь True Blood бесплатно через .torrent фильм мультфильм сериал

Если у вас наблюдаются проблемы со скриншотами, переходом по ссылками, скачиванием торрентов - проблемы в блокировщике рекламы AdBlock. #хорошегоДня!


Статистика раздачи
Размер:  30.18 GB   |    Зарегистрирован:  11 дней   |    .torrent скачан:  3 раза   |   
Раздают:  1  
   
Загрузка...
 
Автор Сообщение

Galfimbul

avatar Galfimbul


Настоящая Кровь 5 Сезон / True Blood Season 5

Год выпуска: 2012
Страна: США
Жанр: Драма, Ужасы, Фэнтези, Фантастика
Продолжительность: 12 x ~55 мин.

Перевод: Профессиональный (многоголосый закадровый) NovaMedia
Перевод 2: Профессиональный (двухголосный закадровый) Кубик в Кубе

Режиссёр: Майкл Леманн, Джон Дал, Ник Гомес, Энтони М. Хемингуэй, Скотт Уинант, Даниэль Минахан
В ролях: Анна Пакуин, Стивен Мойер, Сэм Траммелл, Райан Квантен, Рутина Уэсли, Кристофер Бауэр, Нелсан Эллис, Джим Пэррак, Кэрри Престон и др.

Описание: События разворачиваются в небольшом городке в пригороде Нового Орлеана. С тех пор, как японцы изобрели синтетическую кровь «True Blood», у вампиров отпала необходимость убивать простых смертных. Два года назад вампиры покинули свои гробы и официально заявили о своих правах. Но как водится, не все люди оказались готовы к этому, и не все вампиры были рады отказаться от привычного лакомства. Сьюки Стакхаус — обычная официантка из пригородного кафе, наделенная способностью читать мысли окружающих, знакомится с «хорошим» вампиром Биллом Комптоном. И сразу приобретает много врагов среди «плохих парней»

Ссылка на предыдущие и альтернативные раздачи

Качество: BDRip 720p
Контейнер: MKV
Видео: MPEG-4 AVC, 1280x720 (16:9), 23.976 fps, ~4.5 mbps, 0.203 bit/pixel
Аудио: AC3, 48 kHz, DD 2.0 ch, CBR 192 kbps | NovaMedia (Русский)
Аудио 2: AC3, 48 kHz, 5.1 ch, 384 kbps| Кубик в Кубе (Русский)
Аудио 3: DTS-HD, 48 kHz, 5.1 ch, VBR ~3.2 mbps, 24 bit (DTS Core: 5.1 ch, 48 kHz, 1509 kbps, 24-bit) (Английский)
Субтитры: Английские, Русские
Реклама: Нет

Раздачи Настоящей Крови в HD Качестве: 1 Сезон | 2 Сезон | 3 Сезон | 5 Сезон | 7 Сезон
1) «Turn! Turn! Turn!» - «Обернись! Обернись! Обернись!»
2) «Authority Always Wins» - «Власть всегда побеждает»
3) «Whatever I Am, You Made Me» - «Я такой, каким ты меня сделал»
4) «We'll Meet Again» - «Мы встретимся вновь»
5) «Let's Boot and Rally» - «Зажигай, напарник!»
6) «Hopeless» - «Безнадёжный»
7) «In the Beginning» - «В начале»
8) «Somebody That I Used to Know» - «Кто-то, кого я знал»
9) «Everybody Wants to Rule the World» - «Каждый хочет править миром»
10) «Gone, Gone, Gone» - «Прощай, прощай, прощай»
11) «Sunset» - «Закат»
12) «Save Yourself» - «Спаси себя»
Общее
Уникальный идентификатор : 252263751137735432979740948401180055668 (0xBDC83B313B3C8709BC665BA721A71874)
Полное имя : True Blood E01 S05 2008 BDRip 720p Amedia Кубик в Кубе.mkv
Формат : Matroska
Версия формата : Version 2
Размер файла : 2,39 Гбайт
Продолжительность : 52 м.
Общий поток : 6586 Кбит/сек
Дата кодирования : UTC 2016-08-16 07:28:13
Программа кодирования : mkvmerge v4.0.0 ('The Stars were mine') сборка от Jun 6 2010 16:18:42
Библиотека кодирования : libebml v1.0.0 + libmatroska v1.0.0

Видео
Идентификатор : 1
Формат : AVC
Формат/Информация : Advanced Video Codec
Профиль формата : High@L4.1
Параметр CABAC формата : Да
Параметр ReFrames формата : 5 кадров
Идентификатор кодека : V_MPEG4/ISO/AVC
Продолжительность : 52 м.
Битрейт : 4494 Кбит/сек
Ширина : 1280 пикселей
Высота : 720 пикселей
Соотношение сторон : 16:9
Режим частоты кадров : Постоянный
Частота кадров : 23,976 (24000/1001) кадра/сек
Цветовое пространство : YUV
Субдискретизация насыщенности : 4:2:0
Битовая глубина : 8 бит
Тип развёртки : Прогрессивная
Бит/(Пиксели*Кадры) : 0.203
Размер потока : 1,59 Гбайт (66%)
Библиотека кодирования : x264 core 129 r2230 1cffe9f
Настройки программы : cabac=1 / ref=5 / deblock=1:0:0 / analyse=0x3:0x113 / me=umh / subme=8 / psy=1 / psy_rd=1.00:0.00 / mixed_ref=1 / me_range=16 / chroma_me=1 / trellis=1 / 8x8dct=1 / cqm=0 / deadzone=21,11 / fast_pskip=1 / chroma_qp_offset=-2 / threads=12 / lookahead_threads=2 / sliced_threads=0 / nr=0 / decimate=1 / interlaced=0 / bluray_compat=0 / constrained_intra=0 / bframes=3 / b_pyramid=2 / b_adapt=2 / b_bias=0 / direct=3 / weightb=1 / open_gop=0 / weightp=2 / keyint=240 / keyint_min=24 / scenecut=40 / intra_refresh=0 / rc_lookahead=50 / rc=2pass / mbtree=1 / bitrate=4494 / ratetol=1.0 / qcomp=0.60 / qpmin=0 / qpmax=69 / qpstep=4 / cplxblur=20.0 / qblur=0.5 / ip_ratio=1.40 / aq=1:1.00
Язык : English
Default : Нет
Forced : Нет

Аудио #1
Идентификатор : 2
Формат : AC-3
Формат/Информация : Audio Coding 3
Расширение режима : CM (complete main)
Параметр Endianness формата : Big
Идентификатор кодека : A_AC3
Продолжительность : 52 м.
Вид битрейта : Постоянный
Битрейт : 192 Кбит/сек
Каналы : 2 канала
Расположение каналов : Front: L R
Частота : 48,0 КГц
Частота кадров : 31,250 кадров/сек (1536 spf)
Метод сжатия : С потерями
Размер потока : 71,5 Мбайт (3%)
Заголовок : Amedia
Язык : Russian
Default : Нет
Forced : Нет

Аудио #2
Идентификатор : 3
Формат : AC-3
Формат/Информация : Audio Coding 3
Расширение режима : CM (complete main)
Параметр Endianness формата : Big
Идентификатор кодека : A_AC3
Продолжительность : 52 м.
Вид битрейта : Постоянный
Битрейт : 384 Кбит/сек
Каналы : 6 каналов
Расположение каналов : Front: L C R, Side: L R, LFE
Частота : 48,0 КГц
Частота кадров : 31,250 кадров/сек (1536 spf)
Метод сжатия : С потерями
Размер потока : 143 Мбайт (6%)
Заголовок : Кубик в Кубе
Язык : Russian
Default : Нет
Forced : Нет

Аудио #3
Идентификатор : 4
Формат : DTS
Формат/Информация : Digital Theater Systems
Режим : 16
Параметр Endianness формата : Big
Идентификатор кодека : A_DTS
Продолжительность : 52 м.
Вид битрейта : Постоянный
Битрейт : 1509 Кбит/сек
Каналы : 6 каналов
Расположение каналов : Front: L C R, Side: L R, LFE
Частота : 48,0 КГц
Частота кадров : 93,750 кадра/сек (512 spf)
Битовая глубина : 24 бит
Метод сжатия : С потерями
Задержка видео : 11 мс.
Размер потока : 562 Мбайт (23%)
Язык : English
Default : Нет
Forced : Нет

Текст #1
Идентификатор : 5
Формат : UTF-8
Идентификатор кодека : S_TEXT/UTF8
Идентификатор кодека/Информация : UTF-8 Plain Text
Язык : Russian
Default : Нет
Forced : Нет

Текст #2
Идентификатор : 6
Формат : UTF-8
Идентификатор кодека : S_TEXT/UTF8
Идентификатор кодека/Информация : UTF-8 Plain Text
Язык : English
Default : Нет
Forced : Нет


Трекер:  [ 11-Сен-2017 06:24 ]

  

Скачать .torrent

Размер .torrent файла 152 KB


Размер: 30.18 GB
Хэш (hash) релиза: 1213b5126da6d86f0e61bf24a30055f2696f1a17
Подписка на обновления:

Еще никто не оставлял запись к записи скачать торрент Настоящая Кровь True Blood . Будь первым!

!Обратная связь