Скачать через торрент Настоящая Кровь True Blood Фильм бесплатно в хорошем качестве torrent

Скачивайте на UnionPeer.org фильмы через торрент без регистрации. Новинки кино в хорошем качестве через торрент. На UnionPeer.org можно скачать через торрент фильмы 2014 и 2015 годов. Самые новые фильмы.

Скачать торрент Настоящая Кровь True Blood бесплатно через .torrent фильм мультфильм сериал

Если у вас наблюдаются проблемы со скриншотами, переходом по ссылками, скачиванием торрентов - проблемы в блокировщике рекламы AdBlock. #хорошегоДня!


Статистика раздачи
Размер:  74.06 GB   |    Зарегистрирован:  2 месяца 10 дней   |    .torrent скачан:  15 раз   |   
Раздают:  1  
   
Загрузка...
 
Автор Сообщение

Galfimbul

avatar Galfimbul


Настоящая Кровь 3 Сезон / True Blood Season 3

Год выпуска: 2010
Страна: США
Жанр: Драма, Ужасы, Фэнтези, Фантастика
Продолжительность: 12 x ~55 мин.

Перевод: Профессиональный (многоголосый закадровый) FoxLife
Перевод 2: Профессиональный (многоголосый закадровый) Кубик в Кубе

Режиссёр: Майкл Леманн, Джон Дал, Ник Гомес, Энтони М. Хемингуэй, Скотт Уинант, Даниэль Минахан
В ролях: Анна Пакуин, Стивен Мойер, Сэм Траммелл, Райан Квантен, Рутина Уэсли, Кристофер Бауэр, Нелсан Эллис, Джим Пэррак, Кэрри Престон и др.

Описание: События разворачиваются в небольшом городке в пригороде Нового Орлеана. С тех пор, как японцы изобрели синтетическую кровь «True Blood», у вампиров отпала необходимость убивать простых смертных. Два года назад вампиры покинули свои гробы и официально заявили о своих правах. Но как водится, не все люди оказались готовы к этому, и не все вампиры были рады отказаться от привычного лакомства. Сьюки Стакхаус — обычная официантка из пригородного кафе, наделенная способностью читать мысли окружающих, знакомится с «хорошим» вампиром Биллом Комптоном. И сразу приобретает много врагов среди «плохих парней»

Ссылка на предыдущие и альтернативные раздачи

Качество: BDRip 1080p
Контейнер: MKV
Видео: MPEG-4 AVC, 1920x1080 (16:9), 23.976 fps, ~12.1 mbps, 0.243 bit/pixel
Аудио: AC3, 48 kHz, DD 2.0 ch, CBR 192 kbps | FoxLife (Русский)
Аудио 2: DTS, 48 kHz, 5.1 ch, CBR 1.5 mbps | Кубик в Кубе (Русский)
Аудио 3: DTS-HD, 48 kHz, 5.1 ch, VBR ~3.2 mbps, 24 bit (DTS Core: 5.1 ch, 48 kHz, 1509 kbps, 24-bit) (Английский)
Субтитры: Английские, Русские
Реклама: Нет

Раздачи Настоящей Крови в HD Качестве: 1 Сезон | 2 Сезон | 3 Сезон
1) «Bad Blood» - «Дурная кровь»
2) «Beautifully Broken» - «Прекрасный разрыв»
3) «It Hurts Me Too» - «Мне тоже больно»
4) «9 Crimes» - «Девять преступлений»
5) «Trouble» - «Проблемы»
6) «I Got a Right to Sing the Blues» - «У меня есть право на печаль»
7) «Hitting the Ground» - «Падшие»
8) «Night on the Sun» - «Ночное солнце»
9) «Everything Is Broken» - «Руины»
10) «I Smell a Rat» - «Запах предателя»
11) «Fresh Blood» - «Свежая кровь»
12) «Evil Is Going On» - «Зло продолжает жить»
General
Unique ID : 218009335583712352950463878679619497310 (0xA403121D0B0DC1DEA6D7F214B6B0ED5E)
Complete name : true.blood.s03e01.bdrip.1080p.mvo.eng.mkv
Format : Matroska
Format version : Version 2
File size : 5.70 GiB
Duration : 54mn 39s
Overall bit rate : 14.9 Mbps
Encoded date : UTC 2011-07-26 02:50:59
Writing application : mkvmerge v4.8.0 ('I Got The...') сборка от May 24 2011 03:12:58
Writing library : libebml v1.2.0 + libmatroska v1.1.0

Video
ID : 1
Format : AVC
Format/Info : Advanced Video Codec
Format profile : High@L4.1
Format settings, CABAC : Yes
Format settings, ReFrames : 4 frames
Codec ID : V_MPEG4/ISO/AVC
Duration : 54mn 39s
Nominal bit rate : 9 415 Kbps
Width : 1 920 pixels
Height : 1 080 pixels
Display aspect ratio : 16:9
Frame rate mode : Constant
Frame rate : 23.976 fps
Color space : YUV
Chroma subsampling : 4:2:0
Bit depth : 8 bits
Scan type : Progressive
Bits/(Pixel*Frame) : 0.189
Title : 9 Crimes
Writing library : x264 core 104 r1677 19df41a
Encoding settings : cabac=1 / ref=4 / deblock=1:-1:-1 / analyse=0x3:0x113 / me=umh / subme=9 / psy=1 / psy_rd=1.00:0.00 / mixed_ref=1 / me_range=54 / chroma_me=1 / trellis=2 / 8x8dct=1 / cqm=0 / deadzone=21,11 / fast_pskip=1 / chroma_qp_offset=-2 / threads=12 / sliced_threads=0 / nr=0 / decimate=1 / interlaced=0 / constrained_intra=0 / bframes=5 / b_pyramid=2 / b_adapt=2 / b_bias=0 / direct=1 / weightb=1 / open_gop=1 / weightp=2 / keyint=24 / keyint_min=2 / scenecut=40 / intra_refresh=0 / rc_lookahead=24 / rc=2pass / mbtree=1 / bitrate=9415 / ratetol=1.0 / qcomp=0.70 / qpmin=10 / qpmax=51 / qpstep=4 / cplxblur=20.0 / qblur=0.5 / vbv_maxrate=38000 / vbv_bufsize=30000 / ip_ratio=1.40 / aq=1:1.00 / nal_hrd=none
Language : English
Default : Yes
Forced : No

Audio #1
ID : 2
Format : AC-3
Format/Info : Audio Coding 3
Mode extension : CM (complete main)
Format settings, Endianness : Big
Codec ID : A_AC3
Duration : 54mn 39s
Bit rate mode : Constant
Bit rate : 192 Kbps
Channel(s) : 2 channels
Channel positions : Front: L R
Sampling rate : 48.0 KHz
Frame rate : 31.250 fps (1536 spf)
Compression mode : Lossy
Stream size : 75.1 MiB (1%)
Title : FoxLife
Language : Russian
Default : Yes
Forced : No

Audio #2
ID : 3
Format : DTS
Format/Info : Digital Theater Systems
Mode : 16
Format settings, Endianness : Big
Codec ID : A_DTS
Duration : 54mn 39s
Bit rate mode : Constant
Bit rate : 1 510 Kbps
Channel(s) : 6 channels
Channel positions : Front: L C R, Side: L R, LFE
Sampling rate : 48.0 KHz
Frame rate : 93.750 fps (512 spf)
Bit depth : 24 bits
Compression mode : Lossy
Stream size : 590 MiB (10%)
Title : KvK
Language : Russian
Default : No
Forced : No

Audio #3
ID : 4
Format : DTS
Format/Info : Digital Theater Systems
Format profile : MA / Core
Mode : 16
Format settings, Endianness : Big
Codec ID : A_DTS
Duration : 54mn 39s
Bit rate mode : Variable / Constant
Bit rate : Unknown / 1 509 Kbps
Channel(s) : 6 channels
Channel positions : Front: L C R, Side: L R, LFE
Sampling rate : 48.0 KHz
Frame rate : 93.750 fps (512 spf)
Bit depth : 24 bits
Compression mode : Lossless / Lossy
Title : Original
Language : English
Default : No
Forced : No

Text #1
ID : 5
Format : UTF-8
Codec ID : S_TEXT/UTF8
Codec ID/Info : UTF-8 Plain Text
Language : Russian
Default : No
Forced : No

Text #2
ID : 6
Format : UTF-8
Codec ID : S_TEXT/UTF8
Codec ID/Info : UTF-8 Plain Text
Language : English
Default : No
Forced : No

Menu
00:00:00.000 : en:00:00:00.000
00:04:34.107 : en:00:04:34.107
00:10:08.149 : en:00:10:08.149
00:17:25.836 : en:00:17:25.836
00:25:11.301 : en:00:25:11.301
00:34:55.302 : en:00:34:55.302
00:45:00.156 : en:00:45:00.156
00:53:30.707 : en:00:53:30.707


Трекер:  [ 11-Сен-2017 05:24 ]

  

Скачать .torrent

Размер .torrent файла 371 KB


Размер: 74.06 GB
Хэш (hash) релиза: 1e452699449dceb78c5dd53cf981893da46e84bc
Подписка на обновления:

Еще никто не оставлял запись к записи скачать торрент Настоящая Кровь True Blood . Будь первым!

!Обратная связь