Скачать через торрент Кровавая гонка Blood Drive Фильм бесплатно в хорошем качестве torrent

Скачивайте на UnionPeer.org фильмы через торрент без регистрации. Новинки кино в хорошем качестве через торрент. На UnionPeer.org можно скачать через торрент фильмы 2014 и 2015 годов. Самые новые фильмы.

Скачать торрент Кровавая гонка Blood Drive бесплатно через .torrent фильм мультфильм сериал

Если у вас наблюдаются проблемы со скриншотами, переходом по ссылками, скачиванием торрентов - проблемы в блокировщике рекламы AdBlock. #хорошегоДня!


Статистика раздачи
Размер:  21.72 GB   |    Зарегистрирован:  11 дней   |    .torrent скачан:  15 раз   |   
Раздают:  1  
   
Загрузка...
 
Автор Сообщение

Galfimbul

avatar Galfimbul


Кровавая гонка / Blood Drive

Год выпуска: 2017
Страна: США, Syfy
Жанр: Драма, ужасы, фантастика
Продолжительность: ~ 00:45:00

Перевод: Субтитры Notabenoid antoniolagrande

Режиссёр: Дэвид Стрейтон, Мира Менон, Лин Оэдин, Роэл Рейне, Джеймс Родэй
В ролях: Алан Ричсон, Кристина Очоа, Марама Корлетт, Колин Каннингэм, Даррен Кент, Эндрю Моргадо, Шон Майкл, Карел Нель, Эйдан Уайток

Описание: Сериал SyFy "Кровавые Гонки" выдержан в стилистике Роберта Родригеса вроде "Планеты страха". События фантастического сериала происходят в постапокалиптическом будущем 1999 года в Лос-Анджелесе, а в центре событий - коп Артур Бэйли, который вынужден присоединиться к команде "Кровавых гонок", подпольному шоу в котором автомобили разъезжают на человеческой крови. Его напарница - очаровательная и опасная Грейс Д'Ардженто со своими секретами. Им вместе придется преодолеть множество препятствий, или самим стать топливом для гоночных автомобилей.

Ссылка на предыдущие и альтернативные раздачи:

Сэмпл: http://sendfile.su/1361023

Качество: WEB-DL 1080p
Контейнер: MKV
Видео: MPEG-4 AVC, ~ 5000 Кбит/с, 1920x1080
Аудио: Английский (AC3, 6 ch, 384 Кбит/с)
Субтитры: Русские, Английские
Реклама:
Отсутствует
1-13
General
Complete name : E:\Blood Drive S)1\S01E01.mkv
Format : Matroska
File size : 1.74 GiB
Duration : 44mn 33s
Overall bit rate : 5 581 Kbps
Movie name : Blood.Drive.S01E01.1080p.WEB-DL.DD5.1.H264-RARBG
Encoded date : UTC 2017-09-10 17:30:21
Writing application : mkvmerge v15.0.0 ('Duel with the Devil') 64-bit
Writing library : libebml v1.3.5 + libmatroska v1.4.5
Cover : Yes / Yes / Yes / Yes

Video
ID : 1
Format : AVC
Format/Info : Advanced Video Codec
Format profile : High@L4.0
Format settings, CABAC : Yes
Format settings, ReFrames : 4 frames
Codec ID : V_MPEG4/ISO/AVC
Duration : 44mn 33s
Bit rate mode : Variable
Bit rate : 5 086 Kbps
Width : 1 920 pixels
Height : 1 080 pixels
Display aspect ratio : 16:9
Frame rate : 23.976 fps
Color space : YUV
Chroma subsampling : 4:2:0
Bit depth : 8 bits
Scan type : Progressive
Bits/(Pixel*Frame) : 0.102
Stream size : 1.58 GiB (91%)
Title : Blood.Drive.S01E01.1080p.WEB-DL.DD5.1.H264-RARBG
Language : English
Color primaries : BT.709-5, BT.1361, IEC 61966-2-4, SMPTE RP177
Transfer characteristics : BT.709-5, BT.1361
Matrix coefficients : BT.709-5, BT.1361, IEC 61966-2-4 709, SMPTE RP177

Audio
ID : 2
Format : AC-3
Format/Info : Audio Coding 3
Mode extension : CM (complete main)
Codec ID : A_AC3
Duration : 44mn 33s
Bit rate mode : Constant
Bit rate : 384 Kbps
Channel(s) : 6 channels
Channel positions : Front: L C R, Side: L R, LFE
Sampling rate : 48.0 KHz
Bit depth : 16 bits
Video delay : -42ms
Stream size : 122 MiB (7%)
Title : Blood.Drive.S01E01.1080p.WEB-DL.DD5.1.H264-RARBG
Language : English

Text #1
ID : 3
Format : UTF-8
Codec ID : S_TEXT/UTF8
Codec ID/Info : UTF-8 Plain Text
Language : Russian

Text #2
ID : 4
Format : UTF-8
Codec ID : S_TEXT/UTF8
Codec ID/Info : UTF-8 Plain Text
Language : English

Text #3
ID : 5
Format : UTF-8
Codec ID : S_TEXT/UTF8
Codec ID/Info : UTF-8 Plain Text
Title : SDH
Language : English

Text #4
ID : 6
Format : UTF-8
Codec ID : S_TEXT/UTF8
Codec ID/Info : UTF-8 Plain Text


Трекер:  [ 10-Сен-2017 23:54 ]

  

Скачать .torrent

Размер .torrent файла 28 KB


Размер: 21.72 GB
Хэш (hash) релиза: 595b13ea2beee9505db3d1abb3f1e9e8453521c3
Подписка на обновления:

Торренты, похожие на Кровавая гонка Blood Drive скачать торрент

Форум Название Автор Размер S L Добавлен
Зарубежные сериалы ·· Кровавая гонка / Blood Drive / Сезон: 1 / Серии: 1 из 13 (Дэвид Стрейтон, Мира Менон, Лин Оэдин) [2017, США, Ужасы, фантастика, драма, WEBRip 720p] Original + Rus Sub Galfimbul 14769235101.38 GB 0 0 1499028902

23:55

2-Июл-17

Зарубежные сериалы ·· Кровавая гонка / Blood Drive / Сезон: 1 / Серии: 1 из 13 (Дэвид Стрейтон, Мира Менон, Лин Оэдин / David Straiton, Meera Me, Lin Oeding) [2017, США, Драма, ужасы, фантастика, WEB-DL 1080p] MVO (Alternative Production) + Original Galfimbul 19933565651.86 GB 2 0 1497561905

00:25

16-Июн-17

Зарубежные сериалы ·· Кровавая гонка / Кровавая езда / Blood Drive / Сезон: 1 / Серии: 1 из 13 (Дэвид Стрейтон, Мира Менон, Лин Оэдин) [2017, США, Ужасы, фантастика, драма, WEBRip 720p] MVO (AMS) + Original Galfimbul 36134911093.37 GB 0 0 1497921904

04:25

20-Июн-17

Зарубежные сериалы ·· Кровавая гонка / Кровавая езда / Blood Drive / Сезон: 1 / Серии: 1 из 13 (Дэвид Стрейтон, Мира Менон, Лин Оэдин) [2017, США, Ужасы, фантастика, драма, WEB-DLRip] DVO (Gears Media) + Original Galfimbul 591128544564 MB 0 0 1497718441

19:54

17-Июн-17

Зарубежные сериалы ·· Кровавая гонка / Кровавая езда / Blood Drive / Сезон: 1 / Серии: 1 из 13 (Дэвид Стрейтон, Мира Менон, Лин Оэдин) [2017, США, Ужасы, фантастика, драма, WEB-DL 720p] DVO (Gears Media) + Original Galfimbul 16052070371.49 GB 0 0 1497713098

18:24

17-Июн-17

Зарубежные сериалы ·· Кровавая гонка / Кровавая езда / Blood Drive / Сезон: 1 / Серии: 1 из 13 (Дэвид Стрейтон, Мира Менон, Лин Оэдин) [2017, США, Ужасы, фантастика, драма, WEB-DL 720p] MVO (Jaskier) + Original Galfimbul 16052164551.49 GB 0 0 1497628475

18:54

16-Июн-17

Зарубежные сериалы ·· Кровавая гонка / Кровавая езда / Blood Drive / Сезон: 1 / Серии: 1 из 13 (Дэвид Стрейтон, Мира Менон, Лин Оэдин) [2017, США, Ужасы, фантастика, драма, WEB-DLRip] MVO (Jaskier) + Original Galfimbul 576909312550 MB 0 0 1497628367

18:52

16-Июн-17

Зарубежные сериалы ·· Кровавая гонка / Кровь на колесах / Blood Drive / Сезон: 1 / Серии: 1 из 13 (Дэвид Стрейтон, Мира Менон) [2017, США, Ужасы, фантастика, драма, WEB-DL 720p] MVO (LostFilm) + Original Galfimbul 16051967031.49 GB 0 0 1497772470

10:54

18-Июн-17

Зарубежные сериалы ·· Кровавая гонка / Кровь на колесах / Blood Drive / Сезон: 1 / Серии: 1 из 13 (Дэвид Стрейтон, Мира Менон) [2017, США, Ужасы, фантастика, драма, WEB-DL 1080p] MVO (OmskBird) + Original Galfimbul 19935201301.86 GB 0 0 1497525871

14:24

15-Июн-17

Еще никто не оставлял запись к записи скачать торрент Кровавая гонка Blood Drive . Будь первым!

!Обратная связь