Скачать через торрент Вершина озера Top of the Lake Фильм бесплатно в хорошем качестве torrent

Скачивайте на UnionPeer.org фильмы через торрент без регистрации. Новинки кино в хорошем качестве через торрент. На UnionPeer.org можно скачать через торрент фильмы 2014 и 2015 годов. Самые новые фильмы.

Скачать торрент Вершина озера Top of the Lake бесплатно через .torrent фильм мультфильм сериал

Если у вас наблюдаются проблемы со скриншотами, переходом по ссылками, скачиванием торрентов - проблемы в блокировщике рекламы AdBlock. #хорошегоДня!


Статистика раздачи
Размер:  12.67 GB   |    Зарегистрирован:  11 дней   |    .torrent скачан:  13 раз   |   
Раздают:  1  
   
Загрузка...
 
Автор Сообщение

Galfimbul

avatar Galfimbul


Вершина озера / Top of the Lake

Год выпуска: 2017
Страна: Великобритания, Австралия, Новая Зеландия, США
Жанр: триллер, драма, криминал, детектив
Продолжительность: 00:55:00

Перевод: Профессиональный (многоголосый закадровый) Amedia

Режиссёр: Джейн Кэмпион, Ариел Кляйман, Гарт Дэвис

В ролях: Элизабет Мосс, Питер Муллан. Томас М. Райт, Дэвид Уэнэм, Скай Уэнси, Женевьева Лемон, Робин Малкольм, Клэйтон Джейкобсон, Николь Кидман и др.

Описание: После событий 1 сезона прошло четыре года, Сидней, наши дни. Робин Гриффин (Элизабет Мосс) служит в полиции, у неё новая, немного смешная и нелепая напарница (Гвендолин Кристи - леди Бриенна из "Игры престолов"), вместе с которой они и начинают расследовать новое загадочное убийство азиатской девушки, изувеченный труп которой вынесло в чемодане на городской пляж. Параллельно мы глубже погружаемся в личную трагедию Робин: она пытается найти дочь, от которой отказалась вскоре после ее рождения. Чувство вины и утраты не дает ей покоя. Расследование убийства странным образом совпадает с поисками дочери и приводит детектива Гриффин в очень опасные места. Также Робин пытается решить одну из загадок своего прошлого, связанную с ученой и феминисткой, осознавшей собственную гомосексуальность.

Качество: WEBRip 1080p
Контейнер: MKV
Видео: MPEG-4 AVC, 1920x1080 (16:9), 25.000 fps, 4115 Kbps, 0.079 bits/pixel
Аудио: 48 kHz, AC3, 2 ch, 192 kbps | Russian
Аудио: 48 kHz, EAC3, 6 ch, 640 Kbps kbps | English
Субтитры: Русские, АнглийскиеРеклама: ОтсутствуетСсылка на предыдущие и альтернативные раздачи
Спасибо за раздачу BenderBEST (HDCLUB)

• За исходные записи Amedia большое спасибо - IVXL
• Работа c дорогой и субтитрами BenderBEST
General

Complete name : Downloads\Top of the Lake - Вершина озера. Сезон 2. Amedia. 1080p
Format : Matroska
Format version : Version 4 / Version 2
File size : 1.94 GiB
Duration : 54mn 57s
Overall bit rate mode : Variable
Overall bit rate : 5 047 Kbps
Movie name : Top of the Lake s02e01 @ NNM-Club
Encoded date : UTC 2017-08-14 00:45:18
Writing application : mkvmerge v6.9.1 ('Blue Panther') 64bit built on Apr 18 2014 18:23:38
Writing library : libebml v1.3.0 + libmatroska v1.4.1
Video #1
ID : 1
Format : AVC
Format/Info : Advanced Video Codec
Format profile : High@L4.0
Format settings, CABAC : Yes
Format settings, ReFrames : 4 frames
Codec ID : V_MPEG4/ISO/AVC
Duration : 54mn 57s
Bit rate mode : Variable
Bit rate : 4 115 Kbps
Maximum bit rate : 15.0 Mbps
Width : 1 920 pixels
Height : 1 080 pixels
Display aspect ratio : 16:9
Frame rate mode : Constant
Frame rate : 25.000 fps
Color space : YUV
Chroma subsampling : 4:2:0
Bit depth : 8 bits
Scan type : Progressive
Bits/(Pixel*Frame) : 0.079
Stream size : 1.58 GiB (82%)
Language : English
Default : Yes
Forced : No
Color primaries : BT.709
Transfer characteristics : BT.709
Matrix coefficients : BT.709
Color range : Limited
Audio #2
ID : 2
Format : AC-3
Format/Info : Audio Coding 3
Mode extension : CM (complete main)
Format settings, Endianness : Big
Codec ID : A_AC3
Duration : 54mn 57s
Bit rate mode : Constant
Bit rate : 192 Kbps
Channel(s) : 2 channels
Channel positions : Front: L R
Sampling rate : 48.0 KHz
Bit depth : 16 bits
Compression mode : Lossy
Stream size : 75.5 MiB (4%)
Language : Russian
Default : Yes
Forced : No
Audio #3
ID : 3
Format : E-AC-3
Format/Info : Audio Coding 3
Format settings, Endianness : Big
Codec ID : A_EAC3
Duration : 54mn 57s
Bit rate mode : Constant
Bit rate : 640 Kbps
Channel(s) : 6 channels
Channel positions : Front: L C R, Side: L R, LFE
Sampling rate : 48.0 KHz
Compression mode : Lossy
Stream size : 252 MiB (13%)
Language : English
Default : No
Forced : No
Text #4
ID : 4
Format : UTF-8
Codec ID : S_TEXT/UTF8
Codec ID/Info : UTF-8 Plain Text
Language : Russian
Default : No
Forced : No
Text #5
ID : 5
Format : UTF-8
Codec ID : S_TEXT/UTF8
Codec ID/Info : UTF-8 Plain Text
Language : English
Default : No
Forced : No


Трекер:  [ 10-Сен-2017 23:54 ]

  

Скачать .torrent

Размер .torrent файла 64 KB


Размер: 12.67 GB
Хэш (hash) релиза: cc44031f107f02e9faf84e9470f87556728d5cc5
Подписка на обновления:

Еще никто не оставлял запись к записи скачать торрент Вершина озера Top of the Lake . Будь первым!

!Обратная связь