Скачать через торрент Секретные Материалы The X-Files Фильм бесплатно в хорошем качестве torrent

Скачивайте на UnionPeer.org фильмы через торрент без регистрации. Новинки кино в хорошем качестве через торрент. На UnionPeer.org можно скачать через торрент фильмы 2014 и 2015 годов. Самые новые фильмы.

Скачать торрент Секретные Материалы The X-Files бесплатно через .torrent фильм мультфильм сериал

Если у вас наблюдаются проблемы со скриншотами, переходом по ссылками, скачиванием торрентов - проблемы в блокировщике рекламы AdBlock. #хорошегоДня!


Статистика раздачи
Размер:  58.26 GB   |    Зарегистрирован:  2 месяца 10 дней   |    .torrent скачан:  6 раз   |   
Раздают:  1  
   
Загрузка...
 
Автор Сообщение

Galfimbul

avatar Galfimbul


Секретные Материалы / The X-FilesThe Complete Fifth Season
Оригинальное название: The X-Files
Русское название: Секретные Материалы
Год выпуска: 1997
Страна: США, Канада
Жанр: Научная фантастика
Продолжительность: ~00:44:00
Перевод: Профессиональный (Многоголосный, закадровый) Студия "Селена Интернешнл" по заказу ОРТ
Перевод: Профессиональный (Полное Дублирование) Студия "Room 13" по заказу ТВ3
Перевод: Профессиональный (Двухголосный, закадровый) Студия "Кипарис" по заказу Ren-TV
Перевод: Профессиональный (Многоголосный, закадровый) Лазер-Видео
Перевод: Профессиональный (Многоголосный, закадровый) Гемини-Фильм
Перевод: Профессиональный (Двухголосный, закадровый) Премьер-Фильм
Перевод: Авторский (Одноголосный, закадровый) Сергей Визгунов
Перевод: Авторский (Одноголосный, закадровый) Юрий Живов
Перевод: Профессиональный (Двухголосный, закадровый) 2+2
Перевод: Профессиональный (Двухголосный, закадровый) СТБ
Русские субтитры: Да
Английские субтитры: Да

Режиссёр: Роберт Мэндел

В ролях: Дэвид Духовны, Джиллиан Андерсон, Митч Пилегги, Уильям Б. Дэвис, Николас Ли, Том Брэйдвуд, Дин Хаглунд, Брюс Харвуд

Описание: Секретные материалы — научно-фантастический и мистический сериал о двух агентах ФБР: Фоксе Малдере и Дане Скалли.
Специальному агенту Дане Скалли, доктору и выпускнику академии ФБР в Виргинии, поручают работу в паре с агентом Фоксом Малдером над проектом «Секретные материалы» — архивом таинственных, нерешённых дел ФБР, которые зачастую связаны с паранормальными явлениями, случаями вампиризма и оборотничества, нападением генетических мутантов, свидетельствами о похищении людей пришельцами…
Малдер верит в пришельцев и пытается убедить скептика Скалли, что не всё и не всегда поддаётся разумному объяснению. Это связано с детством Малдера, душевной травмой, которую он перенёс в связи с исчезновением его сестры. Малдер убеждён, что её похитили инопланетяне, и пытается выяснить, как; это терзает его на протяжении всей жизни. Также отец Малдера своими поступками в прошлом повлиял на его выбор в будущем. В своих дискуссиях Малдер и Скалли не столько стараются убедить друг друга, сколько получают удовольствие от самого общения. Постепенно первоначальное взаимное недоверие перерастает в дружбу, а чуть позже и в более глубокое чувство.
Эпизоды сериала делятся на два вида. Часть из них относятся к основной сюжетной линии, называемой мифологией сериала, которая на протяжении всех сезонов ведёт к своему логическому завершению и повествует о том, как Малдер и Скалли пытаются раскрыть тайны секретной правительственной организации, располагающей фактами о прибытии на Землю инопланетных цивилизаций. Подавляющее большинство других серий «Секретных материалов», которые называют монстрами недели, рассказывают об отдельных расследованиях Малдера и Скалли, как правило, не связанных с «мифологией». Тем не менее, некоторые «монстры недели» могут быть косвенно связаны с сюжетными линиями «мифологии», например, в том, что касается заговоров и интриг внутри ФБР и правительства США, личной жизни главных героев и второстепенных персонажей, ключевых именно для «мифологии». Поэтому для всестороннего понимания и оценки художественной ценности сериала необходимо смотреть все его серии и даже несколько абстрагироваться от какого-либо разделения на «мифологические» и «немифологические».Релиз от:Совместный проект: Над релизом работали:
Выражаю огромнейшую благодарность следующим лицам:
ascn - исходники звука Tycoon.
ALEKS KV - предоставление и оцифровка дорожек ОРТ, Сергея Визгунова, Лазер-Видео, Гемини-Фильм, Премьер-Фильм, работа со звуком, сведение дорожек, итоговый муксинг.
Human_Bean - за предоставление и оцифровку дорожек ОРТ из личных архивов.
Rezhisser_78 - за предоставление и оцифровку дорожек ОРТ из личных архивов.
Samphire - за предоставление и оцифровку дорожек ОРТ из личных архивов.
52246, dangv - ранние работы с дорожками ОРТ.
Eldar1982, RoxMarty, dangv, Samphire - за предоставление дорожек Ren-TV.
Justin_Quayle, sanchez2011, PaFos-DJ - за запись и предоставление дорожек ТВ3.
manhunt - предоставил оцифровки кассет Гемини-Фильм.
Volshebnik - покупка и сборка Blu-Ray, сведение дорожек Юрия Живова в 5.1, покупка Лазер-Видео, сведение остальных дорожек под BD.
lostrator - работа над русскими субтитрами (перевод, тайминг, стилизация)
-JokeR- - работа с субтитрами.
Дмитрий Есарев - доперевод дополнительных материалов.
RoxMarty - многолетняя работа над сериалом, сбор материалов, оцифровка, работа со звуком, выкуп материалов.
MarvelGirl, Партизан, soulstorm, серый75, qlex, ALEKS KV, Юрий Сербин - за уникальные дорожки с переводами Сергея Визгунова и Александра Кашкина.
DenisLp, soulstorm, ka81, tolya21, dangv, RoxMarty - за спонсированный выкуп частной коллекции видеокассет с переводом ОРТ.
LonerD, Romario_O, RB26DETT, Jonas Hanway - за украинские дорожки.
foxlight, RoxMarty - за организацию доозвучивания пропусков Сергея Визгунова.СэмплДоп. информация: Релиз представляет собой качественный BDRip 720p от DON'а с максимальным набором звуковых дорожек. Впервые выложен самый максимальный набор лучших по качеству дорожек, в особенности дорожек ОРТ!
5х01
00:06 - пропуск

5x13
01:23 - пропуск
нет зачитки заставки
11:37 - пропуск

5x17
14:08-14:24 - пропуск (срез на канале ОРТ)

5x18
09:15 - пропуск

Нету зачитки титров в сериях - 5x02, 5x03, 5x06.
Качество: BDRip 720p (DON)
Формат: MKV
Видео кодек: x264
Аудио кодек: AC3
Видео: x264, 1280x720, 8bit, 23.976 fps, 6350 kbps
Аудио:

русская: Dolby AC3 48000Hz ---|DualMono|--- 192Kbps [ОРТ] (Серии 01-20)
русская: Dolby AC3 48000Hz -----|Stereo|----- 192Kbps [ТВ3] (Серии 01-20)
русская: Dolby AC3 48000Hz ---|DualMono|--- 192Kbps [Ren-TV] (Серии 01-20)
русская: Dolby AC3 48000Hz -----|Stereo|----- 192Kbps [Лазер-Видео] (Серии 01, 02, 06, 07) {Hi-Fi}
русская: Dolby AC3 48000Hz -----|Stereo|----- 192Kbps [Гемини-Фильм] (Серии 13, 14, 20) {Серия 20 - DualMono} {13, 14 серии - Hi-Fi}
русская: Dolby AC3 48000Hz -----|Stereo|----- 192Kbps [Премьер-Фильм] (Серии 01, 02, 13, 14) {Hi-Fi}
русская: Dolby AC3 48000Hz ---|DualMono|--- 192Kbps [Сергей Визгунов] (Серии 01-20) {Серии 01, 13 - с фразами записанными в 2016 году Сергеем на VHSные пропуски} {Серии 09-11, 15, 16 - stereo}
русская: Dolby AC3 48000Hz -------|5.1|------- 640Kbps [Юрий Живов] (Серии 01-20)
украинская: Dolby AC3 48000Hz |DualMono| 192Kbps [2+2] (Серии 01-20)
украинская: Dolby AC3 48000Hz |DualMono| 192Kbps [СТБ] (Серии 01-20)
английская: Dolby AC3 48000Hz ---|5.1|------ 640Kbps [Original] (Серии 01-24)
английская: Dolby AC3 48000Hz -|Stereo|--- 224Kbps [Commentary] (Серии 05, 13, 14, 18)
русская: Dolby AC3 48000Hz ------|Stereo|--- 256Kbps [Commentary (RoxMarty)] (Серии 05, 13, 14, 18)

Субтитры:

русские: lostrator (Серии 01-20)
русские: lostrator (SRT) (Серии 01-20)
русские: lostrator (Forced) (Серии 01-20)
русские: lostrator (Forced) (SRT) (Серии 01-20)
русские: lostrator (Forced ОРТ) (Серии 17)
русские: lostrator (Forced ОРТ) (SRT) (Серии 17)
русские: Commentary (Серия 05, 13, 14, 18)
английские: Original (Серии 01-20)
английские: Original (SDH) (Серии 01-20)
английские: Commentary (Серия 05)
Знаком ‡ выделены серии, относящиеся к «мифологии» сериала.

01. Возвращение ‡
02. Возвращение II ‡
03. Необычные подозреваемые
04. Объезд
05. Постмодернистский Прометей
06. Рождественский гимн ‡
07. Эмили ‡
08. Охота на лис
09. Шизогения
10. Чинга
11. Код для уничтожения
12. Дурная кровь
13. Пациент «Икс» ‡
14. Красное и чёрное ‡
15. Странники
16. Око разума»
17. Все души
18. Вариант «Блеф»
19. Обоюдное сумасшествие
20. Конец ‡
General
Unique ID : 252663582925304860918836248930136190898 (0xBE153C6BE2AC6101A3E8D45FC2A96FB2)
Complete name : xxxxxxxxxxxx\[HDClub&M-KV2501] The X-Files 05x01 Redux [BDRip DON] [720p].mkv
Format : Matroska
Format version : Version 4 / Version 2
File size : 2.93 GiB
Duration : 44 min 51 s
Overall bit rate : 9 345 kb/s
Encoded date : UTC 2017-09-09 16:10:06
Writing application : mkvmerge v8.3.0 ('Over the Horizon') 64bit
Writing library : libebml v1.3.1 + libmatroska v1.4.2
Attachments : 7fonts.ru_Xfiles.ttf / 7785.ttf / 7786.ttf / AmericanTypewriter.ttc / Arial Bold.ttf / corona.TTF / GillSans.ttc / Iris_Normal.ttf / LOST (3).TTF / Times New Roman.ttf / times.ttf / TrajanPro3-Bold.otf / X-files2.ttf

Video
ID : 1
Format : AVC
Format/Info : Advanced Video Codec
Format profile : High@L4.1
Format settings, CABAC : Yes
Format settings, ReFrames : 9 frames
Codec ID : V_MPEG4/ISO/AVC
Duration : 44 min 51 s
Bit rate : 6 501 kb/s
Width : 1 280 pixels
Height : 720 pixels
Display aspect ratio : 16:9
Frame rate mode : Constant
Frame rate : 23.976 (24000/1001) FPS
Color space : YUV
Chroma subsampling : 4:2:0
Bit depth : 8 bits
Scan type : Progressive
Bits/(Pixel*Frame) : 0.294
Stream size : 2.04 GiB (70%)
Title : Original
Writing library : x264 core 148 r2638kMod 7599210
Encoding settings : cabac=1 / ref=9 / deblock=1:-3:-3 / analyse=0x3:0x113 / me=umh / subme=11 / psy=1 / fade_compensate=0.00 / psy_rd=1.00:0.00 / mixed_ref=1 / me_range=32 / chroma_me=1 / trellis=2 / 8x8dct=1 / cqm=0 / deadzone=21,11 / fast_pskip=0 / chroma_qp_offset=-3 / threads=12 / lookahead_threads=3 / sliced_threads=0 / nr=0 / decimate=1 / interlaced=0 / bluray_compat=0 / constrained_intra=0 / fgo=0 / bframes=12 / b_pyramid=2 / b_adapt=2 / b_bias=0 / direct=3 / weightb=1 / open_gop=0 / weightp=2 / keyint=230 / keyint_min=23 / scenecut=40 / intra_refresh=0 / rc_lookahead=40 / rc=crf / mbtree=0 / crf=20.4000 / qcomp=0.65 / qpmin=0 / qpmax=69 / qpstep=4 / vbv_maxrate=50000 / vbv_bufsize=62500 / crf_max=0.0 / nal_hrd=none / filler=0 / ip_ratio=1.40 / pb_ratio=1.30 / aq=3:0.85
Language : English
Default : Yes
Forced : No

Audio #1
ID : 2
Format : AC-3
Format/Info : Audio Coding 3
Mode extension : CM (complete main)
Format settings, Endianness : Big
Codec ID : A_AC3
Duration : 44 min 51 s
Bit rate mode : Constant
Bit rate : 192 kb/s
Channel(s) : 2 channels
Channel positions : Front: L R
Sampling rate : 48.0 kHz
Frame rate : 31.250 FPS (1536 spf)
Bit depth : 16 bits
Compression mode : Lossy
Stream size : 61.6 MiB (2%)
Title : ОРТ
Language : Russian
Default : Yes
Forced : No

Audio #2
ID : 3
Format : AC-3
Format/Info : Audio Coding 3
Mode extension : CM (complete main)
Format settings, Endianness : Big
Codec ID : A_AC3
Duration : 44 min 51 s
Bit rate mode : Constant
Bit rate : 192 kb/s
Channel(s) : 2 channels
Channel positions : Front: L R
Sampling rate : 48.0 kHz
Frame rate : 31.250 FPS (1536 spf)
Bit depth : 16 bits
Compression mode : Lossy
Stream size : 61.6 MiB (2%)
Title : ТВ3
Language : Russian
Default : No
Forced : No

Audio #3
ID : 4
Format : AC-3
Format/Info : Audio Coding 3
Mode extension : CM (complete main)
Format settings, Endianness : Big
Codec ID : A_AC3
Duration : 44 min 51 s
Bit rate mode : Constant
Bit rate : 192 kb/s
Channel(s) : 2 channels
Channel positions : Front: L R
Sampling rate : 48.0 kHz
Frame rate : 31.250 FPS (1536 spf)
Bit depth : 16 bits
Compression mode : Lossy
Stream size : 61.6 MiB (2%)
Title : Ren-TV
Language : Russian
Default : No
Forced : No

Audio #4
ID : 5
Format : AC-3
Format/Info : Audio Coding 3
Mode extension : CM (complete main)
Format settings, Endianness : Big
Codec ID : A_AC3
Duration : 44 min 51 s
Bit rate mode : Constant
Bit rate : 192 kb/s
Channel(s) : 2 channels
Channel positions : Front: L R
Sampling rate : 48.0 kHz
Frame rate : 31.250 FPS (1536 spf)
Bit depth : 16 bits
Compression mode : Lossy
Stream size : 61.6 MiB (2%)
Title : Лазер-Видео
Language : Russian
Default : No
Forced : No

Audio #5
ID : 6
Format : AC-3
Format/Info : Audio Coding 3
Mode extension : CM (complete main)
Format settings, Endianness : Big
Codec ID : A_AC3
Duration : 44 min 51 s
Bit rate mode : Constant
Bit rate : 192 kb/s
Channel(s) : 2 channels
Channel positions : Front: L R
Sampling rate : 48.0 kHz
Frame rate : 31.250 FPS (1536 spf)
Bit depth : 16 bits
Compression mode : Lossy
Stream size : 61.6 MiB (2%)
Title : Премьер-Фильм
Language : Russian
Default : No
Forced : No

Audio #6
ID : 7
Format : AC-3
Format/Info : Audio Coding 3
Mode extension : CM (complete main)
Format settings, Endianness : Big
Codec ID : A_AC3
Duration : 44 min 51 s
Bit rate mode : Constant
Bit rate : 192 kb/s
Channel(s) : 2 channels
Channel positions : Front: L R
Sampling rate : 48.0 kHz
Frame rate : 31.250 FPS (1536 spf)
Bit depth : 16 bits
Compression mode : Lossy
Stream size : 61.6 MiB (2%)
Title : Сергей Визгунов
Language : Russian
Default : No
Forced : No

Audio #7
ID : 8
Format : AC-3
Format/Info : Audio Coding 3
Mode extension : CM (complete main)
Format settings, Endianness : Big
Codec ID : A_AC3
Duration : 44 min 51 s
Bit rate mode : Constant
Bit rate : 640 kb/s
Channel(s) : 6 channels
Channel positions : Front: L C R, Side: L R, LFE
Sampling rate : 48.0 kHz
Frame rate : 31.250 FPS (1536 spf)
Bit depth : 16 bits
Compression mode : Lossy
Stream size : 205 MiB (7%)
Title : Юрий Живов
Language : Russian
Default : No
Forced : No

Audio #8
ID : 9
Format : AC-3
Format/Info : Audio Coding 3
Mode extension : CM (complete main)
Format settings, Endianness : Big
Codec ID : A_AC3
Duration : 44 min 51 s
Bit rate mode : Constant
Bit rate : 192 kb/s
Channel(s) : 2 channels
Channel positions : Front: L R
Sampling rate : 48.0 kHz
Frame rate : 31.250 FPS (1536 spf)
Bit depth : 16 bits
Compression mode : Lossy
Stream size : 61.6 MiB (2%)
Title : 2+2
Language : Ukrainian
Default : No
Forced : No

Audio #9
ID : 10
Format : AC-3
Format/Info : Audio Coding 3
Mode extension : CM (complete main)
Format settings, Endianness : Big
Codec ID : A_AC3
Duration : 44 min 51 s
Bit rate mode : Constant
Bit rate : 192 kb/s
Channel(s) : 2 channels
Channel positions : Front: L R
Sampling rate : 48.0 kHz
Frame rate : 31.250 FPS (1536 spf)
Bit depth : 16 bits
Compression mode : Lossy
Stream size : 61.6 MiB (2%)
Title : СТБ
Language : Ukrainian
Default : No
Forced : No

Audio #10
ID : 11
Format : AC-3
Format/Info : Audio Coding 3
Mode extension : CM (complete main)
Format settings, Endianness : Big
Codec ID : A_AC3
Duration : 44 min 51 s
Bit rate mode : Constant
Bit rate : 640 kb/s
Channel(s) : 6 channels
Channel positions : Front: L C R, Side: L R, LFE
Sampling rate : 48.0 kHz
Frame rate : 31.250 FPS (1536 spf)
Bit depth : 16 bits
Compression mode : Lossy
Stream size : 205 MiB (7%)
Title : Original
Language : English
Default : No
Forced : No

Text #1
ID : 12
Format : ASS
Codec ID : S_TEXT/ASS
Codec ID/Info : Advanced Sub Station Alpha
Duration : 44 min 41 s
Bit rate : 249 b/s
Count of elements : 661
Compression mode : Lossless
Stream size : 81.8 KiB (0%)
Title : lostrator
Language : Russian
Default : No
Forced : No

Text #2
ID : 13
Format : UTF-8
Codec ID : S_TEXT/UTF8
Codec ID/Info : UTF-8 Plain Text
Duration : 44 min 41 s
Bit rate : 141 b/s
Count of elements : 551
Stream size : 46.2 KiB (0%)
Title : lostrator (SRT)
Language : Russian
Default : No
Forced : No

Text #3
ID : 14
Format : ASS
Codec ID : S_TEXT/ASS
Codec ID/Info : Advanced Sub Station Alpha
Duration : 43 min 40 s
Bit rate : 51 b/s
Count of elements : 127
Compression mode : Lossless
Stream size : 16.5 KiB (0%)
Title : lostrator (Forced)
Language : Russian
Default : No
Forced : No

Text #4
ID : 15
Format : UTF-8
Codec ID : S_TEXT/UTF8
Codec ID/Info : UTF-8 Plain Text
Duration : 43 min 40 s
Bit rate : 21 b/s
Count of elements : 127
Stream size : 6.90 KiB (0%)
Title : lostrator (Forced) (SRT)
Language : Russian
Default : No
Forced : No

Text #5
ID : 16
Format : UTF-8
Codec ID : S_TEXT/UTF8
Codec ID/Info : UTF-8 Plain Text
Duration : 43 min 53 s
Bit rate : 75 b/s
Count of elements : 478
Stream size : 24.3 KiB (0%)
Title : Original
Language : English
Default : No
Forced : No

Text #6
ID : 17
Format : UTF-8
Codec ID : S_TEXT/UTF8
Codec ID/Info : UTF-8 Plain Text
Duration : 43 min 53 s
Bit rate : 76 b/s
Count of elements : 488
Stream size : 24.6 KiB (0%)
Title : Original (SDH)
Language : English
Default : No
Forced : No

Menu
00:00:00.000 : en:00:00:00.000
00:03:56.736 : en:00:03:56.736
00:04:43.283 : en:00:04:43.283
00:07:26.321 : en:00:07:26.321
00:10:12.278 : en:00:10:12.278
00:12:03.389 : en:00:12:03.389
00:17:03.189 : en:00:17:03.189
00:22:02.196 : en:00:22:02.196
00:23:39.752 : en:00:23:39.752
00:24:40.187 : en:00:24:40.187
00:27:55.132 : en:00:27:55.132
00:32:13.974 : en:00:32:13.974
00:37:26.703 : en:00:37:26.703
00:43:08.628 : en:00:43:08.628
00:44:13.442 : en:00:44:13.442
Внимание, данная раздача содержит эксклюзивный контент от Rutracker, RoxMarty, M-KV2501, HDClub, E-180. Использовать контент без баннеров групп: , указания первоначального источника, а так же оригинальных названий файлов - ЗАПРЕЩЕНО! Уважайте чужой труд!
Отличия данной раздачи от раздачи сериала на hdclub в блюрей дисках. В отличие от неё, здесь:
√ присутствует перевод и озвучка Лазер-Видео.
√ присутствует перевод и озвучка Гемини-Фильм.
√ присутствует перевод и озвучка Премьер-Фильм.
√ присутствует перевод и озвучка СТБ.
√ присутствуют русские субтитры в формате ASS (содержащие в некоторых местах анимацию текста, которой нет в BD-субтитрах) + необходимые шрифты в комплект к каждой серии
<div class="sp-wrap">
<div class="sp-head folded">Графический навигатор по всем сезонам, фильму, ответвлению, доп. материалам (DVD, BD, BD-Rip)</div>
<div class="sp-body">

.........................

....... ................ ................ ................. ................



....... ................................. .................................. +

....... ................ ................ ................. ................. </div>
</div>

Трекер:  [ 10-Сен-2017 23:54 ]

  

Скачать .torrent

Размер .torrent файла 294 KB


Размер: 58.26 GB
Хэш (hash) релиза: e1c9fd44d856d659453c9be3526a5d318e97555d
Подписка на обновления:

Еще никто не оставлял запись к записи скачать торрент Секретные Материалы The X-Files . Будь первым!

!Обратная связь