Скачать через торрент 5+ ПЯТЬ ПЛЮС. Благотворительная телеигра-лотерея Фильм бесплатно в хорошем качестве torrent

Скачивайте на UnionPeer.org фильмы через торрент без регистрации. Новинки кино в хорошем качестве через торрент. На UnionPeer.org можно скачать через торрент фильмы 2014 и 2015 годов. Самые новые фильмы.

Скачать торрент 5+ ПЯТЬ ПЛЮС. Благотворительная телеигра-лотерея бесплатно через .torrent фильм мультфильм сериал

Если у вас наблюдаются проблемы со скриншотами, переходом по ссылками, скачиванием торрентов - проблемы в блокировщике рекламы AdBlock. #хорошегоДня!


Статистика раздачи
Размер:  2.73 GB   |    Зарегистрирован:  11 дней   |    .torrent скачан:  0 раз   |   
Раздают:  1  
   
Загрузка...
 
Автор Сообщение

Galfimbul

avatar Galfimbul


5+ / ПЯТЬ ПЛЮС
Благотворительная телеигра-лотерея
Год выпуска: 1991
Страна: Россия
Жанр: телеигра, лотерея, концерт
Продолжительность: 00:53:35 и 00:52:46

Телеканал: Ностальгия

Ведущий: Дмитрий Крылов

Описание: Благотворительная телеигра-лотерея с участием звёзд российской эстрады.

Качество: DVB
Формат: MPG
Видео кодек: MPEG2
Аудио кодек: MP2
Видео: MPEG2 Video 720x576 (4:3) 25fps 2921kbps и 3915kbps
Аудио: MPEG Audio 48000Hz stereo 192kbps
Часть 1
Ирина Понаровская – Ты всегда со мной
Оркестр Олега Лундстрема
София Ротару – Была не была
Александр Градский – Кино
Лариса Долина – Робкий и застенчивый
Владимир Маркин – Белая черёмуха
Владимир Пресняков – Странник

Часть 2
Игорь Тальков – Я вернусь
Дмитрий Маликов – Сторона родная
«А-Студио» – Белая река
Вячеслав Малежик – Моцарт
Игорь Николаев и Наташа Королёва – Дельфин и русалка
Родион Газманов – Танцуй, пока молодой
Александр Барыкин – Ты так мила
Надежда Бабкина – Печали свет
<div class="sp-wrap">
<div class="sp-head folded">Часть 1</div>
<div class="sp-body">

GeneralComplete name : ПЯТЬ ПЛЮС. Часть 1 (1991) [Ностальгия].mpgFormat : MPEG-PSFile size : 1.19 GiBDuration : 53mn 35sOverall bit rate mode : VariableOverall bit rate : 3 176 KbpsWriting library : (dvd5: Jun 16 2014)

VideoID : 224 (0xE0)Format : MPEG VideoFormat version : Version 2Format profile : Main@MainFormat settings, BVOP : YesFormat settings, Matrix : CustomFormat settings, GOP : VariableDuration : 53mn 35sBit rate mode : VariableBit rate : 2 921 KbpsMaximum bit rate : 15.0 MbpsWidth : 720 pixelsHeight : 576 pixelsDisplay aspect ratio : 4:3Frame rate : 25.000 fpsStandard : PALColor space : YUVChroma subsampling : 4:2:0Bit depth : 8 bitsScan type : InterlacedScan order : Top Field FirstCompression mode : LossyBits/(Pixel*Frame) : 0.282Time code of first frame : 00:00:00:00Time code source : Group of pictures headerStream size : 1.09 GiB (92%)Source encoded stream size : (dvd5: Jun 16 2014)Writing library : (dvd5: Jun 16 2014)

AudioID : 192 (0xC0)Format : MPEG AudioFormat version : Version 1Format profile : Layer 2Duration : 53mn 35sBit rate mode : ConstantBit rate : 192 KbpsChannel(s) : 2 channelsSampling rate : 48.0 KHzCompression mode : LossyDelay relative to video : -40msStream size : 73.6 MiB (6%)
GeneralComplete name : ПЯТЬ ПЛЮС. Часть 2 (1991) [Ностальгия].mpgFormat : MPEG-PSFile size : 1.54 GiBDuration : 52mn 46sOverall bit rate mode : VariableOverall bit rate : 4 190 KbpsWriting library : (dvd5: Jun 16 2014)

VideoID : 224 (0xE0)Format : MPEG VideoFormat version : Version 2Format profile : Main@MainFormat settings, BVOP : NoFormat settings, Matrix : CustomFormat settings, GOP : VariableDuration : 52mn 46sBit rate mode : VariableBit rate : 3 915 KbpsMaximum bit rate : 15.0 MbpsWidth : 720 pixelsHeight : 576 pixelsDisplay aspect ratio : 4:3Frame rate : 25.000 fpsStandard : PALColor space : YUVChroma subsampling : 4:2:0Bit depth : 8 bitsScan type : InterlacedScan order : Top Field FirstCompression mode : LossyBits/(Pixel*Frame) : 0.378Time code of first frame : 00:00:00:00Time code source : Group of pictures headerStream size : 1.44 GiB (93%)Source encoded stream size : (dvd5: Jun 16 2014)Writing library : (dvd5: Jun 16 2014)

AudioID : 192 (0xC0)Format : MPEG AudioFormat version : Version 1Format profile : Layer 2Duration : 52mn 46sBit rate mode : ConstantBit rate : 192 KbpsChannel(s) : 2 channelsSampling rate : 48.0 KHzCompression mode : LossyStream size : 72.5 MiB (5%)
</div>
</div>

Трекер:  [ 10-Сен-2017 21:42 ]

  

Скачать .torrent

Размер .torrent файла 14 KB


Размер: 2.73 GB
Хэш (hash) релиза: 6cdb477c53ae47f298a4c8b59e16ba26bc1f3025
Подписка на обновления:

Еще никто не оставлял запись к записи скачать торрент 5+ ПЯТЬ ПЛЮС. Благотворительная телеигра-лотерея . Будь первым!

!Обратная связь