Скачать через торрент Латиноамериканский чекин Латиноамериканський чекiн Фильм бесплатно в хорошем качестве torrent

Скачивайте на UnionPeer.org фильмы через торрент без регистрации. Новинки кино в хорошем качестве через торрент. На UnionPeer.org можно скачать через торрент фильмы 2014 и 2015 годов. Самые новые фильмы.

Скачать торрент Латиноамериканский чекин Латиноамериканський чекiн бесплатно через .torrent фильм мультфильм сериал

Если у вас наблюдаются проблемы со скриншотами, переходом по ссылками, скачиванием торрентов - проблемы в блокировщике рекламы AdBlock. #хорошегоДня!


Статистика раздачи
Размер:  613 MB   |    Зарегистрирован:  2 месяца 11 дней   |    .torrent скачан:  19 раз   |   
Раздают:  1  
   
Загрузка...
 
Автор Сообщение

Galfimbul

avatar Galfimbul


Латиноамериканский чекин / Латиноамериканський чекiн / Латиноамериканський CHECK-IN

Дата/Год выпуска: 2017
Страна: Украина
Жанр: путешествия, развлечения, трэвел-шоу
Продолжительность: 1x50 минут
Перевод: Не требуется
Русские субтитры: нет

Оригинальная аудиодорожка: украинский
Режиссер: Евгений Славкинский, Илья Луценко
Телеканал: НЛО ТБОписание: Ведущие, знакомые зрителю по «Американскому CHECK-IN», отправились в Латинскую Америку и побывали в девяти странах: Мексике, Коста-Рике, Панаме, Эквадоре, Перу, Боливии, Чили, Аргентине и Бразилии. Зрителя ждут захватывающие истории о путешествии, в котором было много красивой природы, неординарных людей и даже опасных приключений! Ведущие столкнулись с невероятным колоритом и контрастами: рядом с бизнес-центрами и людьми в дорогущих костюмах сосуществуют трущобы, фавелы, вижьи. Илья и Женя расскажут о богатой и беспечной жизни на контрасте с жизнью, к примеру, в «Креколенде».

Доп. информация: Продолжение трэвел-шоу "Города", "Еврочекин" и "Американский чекин".Сэмпл: http://sendfile.su/1360996

качество: SATRip
формат: AVI
Видео: Xvid 720x400 (16:9) ~1536kbps 25fps
Аудио: MP3 192kbps 48kHz 2ch
1. Мехико.
GeneralComplete name : E:\Мои раздачи\Телепрограммы\Латиноамериканский чекин\Латиноамериканский чекин (2017-09-09).aviFormat : AVIFormat/Info : Audio Video InterleaveFile size : 613 MiBDuration : 49 min 25 sOverall bit rate : 1 735 kb/s

VideoID : 0Format : MPEG-4 VisualFormat profile : Advanced Simple@L5Format settings, BVOP : 2Format settings, QPel : NoFormat settings, GMC : No warppointsFormat settings, Matrix : Default (H.263)Codec ID : XVIDCodec ID/Hint : XviDDuration : 49 min 25 sBit rate : 1 533 kb/sWidth : 720 pixelsHeight : 400 pixelsDisplay aspect ratio : 16:9Frame rate : 25.000 FPSColor space : YUVChroma subsampling : 4:2:0Bit depth : 8 bitsScan type : ProgressiveCompression mode : LossyBits/(Pixel*Frame) : 0.213Stream size : 542 MiB (88%)Writing library : XviD 73

AudioID : 1Format : MPEG AudioFormat version : Version 1Format profile : Layer 3Mode : Joint stereoCodec ID : 55Codec ID/Hint : MP3Duration : 49 min 25 sBit rate mode : ConstantBit rate : 192 kb/sChannel(s) : 2 channelsSampling rate : 48.0 kHzCompression mode : LossyStream size : 67.9 MiB (11%)Alignment : Split accross interleavesInterleave, duration : 40 ms (1.00 video frame)Interleave, preload duratio : 500 ms


Трекер:  [ 10-Сен-2017 21:12 ]

  

Скачать .torrent

Размер .torrent файла 12 KB


Размер: 613 MB
Хэш (hash) релиза: 4f40fe127ca2bf5ad99d204d387f62ca53f9421d
Подписка на обновления:

Еще никто не оставлял запись к записи скачать торрент Латиноамериканский чекин Латиноамериканський чекiн . Будь первым!

!Обратная связь