Скачать через торрент Большая прогулка Фильм бесплатно в хорошем качестве torrent

Скачивайте на UnionPeer.org фильмы через торрент без регистрации. Новинки кино в хорошем качестве через торрент. На UnionPeer.org можно скачать через торрент фильмы 2014 и 2015 годов. Самые новые фильмы.

Скачать торрент Большая прогулка бесплатно через .torrent фильм мультфильм сериал

Если у вас наблюдаются проблемы со скриншотами, переходом по ссылками, скачиванием торрентов - проблемы в блокировщике рекламы AdBlock. #хорошегоДня!


Статистика раздачи
Размер:  1.86 GB   |    Зарегистрирован:  8 дней   |    .torrent скачан:  1 раз   |   
Раздают:  1  
   
Загрузка...
 
Автор Сообщение

Galfimbul

avatar Galfimbul


Большая прогулка

Годы выпуска: 1992-1993
Страна: Россия
Жанр: познавательный, интервью
Продолжительность: 00:52:12 и 00:34:31

Телеканал: Ностальгия

Описание: Программа о телевидении.

Качество: DVB
Формат: MPG
Видео кодек: MPEG2
Аудио кодек: MP2
Видео: MPEG2 Video 720x576 (4:3) 25fps 2667kbps и 3056kbps
Аудио: MPEG Audio 48000Hz stereo 192kbps
<div class="sp-wrap">
<div class="sp-head folded">Содержание</div>
<div class="sp-body">– Мультсериалы Disney. Актёры дубляжа
– Поле чудес. Интервью с Леонидом Якубовичем
– Фильм «Три дня вне закона». Тимофей Спивак
– Сериал «Богатые тоже плачут». Интервью с Валентином Пимштейном и Вероникой Кастро
– Сериал «Мелочи жизни»
– Фильм Стивена Кинга «Косильщик лужаек»
– Молдавское телевидение. Интервью с Ларисой Зиновьевой
– Боевики с женщинами
– Конкурс телевизионных фильмов «Фортуна»
– Русская служба BBC
– Интервью с Владимиром Мукусевым
– Журнал «ТВ-ревю»
– Интервью с Валентиной Леонтьевой
GeneralComplete name : 1992-09-09 Большая прогулка [Ностальгия].mpgFormat : MPEG-PSFile size : 1.06 GiBDuration : 52mn 11sOverall bit rate mode : VariableOverall bit rate : 2 917 KbpsWriting library : (dvd5: Jun 16 2014)

VideoID : 224 (0xE0)Format : MPEG VideoFormat version : Version 2Format profile : Main@MainFormat settings, BVOP : YesFormat settings, Matrix : CustomFormat settings, GOP : VariableDuration : 52mn 11sBit rate mode : VariableBit rate : 2 667 KbpsMaximum bit rate : 15.0 MbpsWidth : 720 pixelsHeight : 576 pixelsDisplay aspect ratio : 4:3Frame rate : 25.000 fpsStandard : PALColor space : YUVChroma subsampling : 4:2:0Bit depth : 8 bitsScan type : InterlacedScan order : Top Field FirstCompression mode : LossyBits/(Pixel*Frame) : 0.257Time code of first frame : 00:00:00:00Time code source : Group of pictures headerStream size : 996 MiB (91%)Source encoded stream size : (dvd5: Jun 16 2014)Writing library : (dvd5: Jun 16 2014)

AudioID : 192 (0xC0)Format : MPEG AudioFormat version : Version 1Format profile : Layer 2Duration : 52mn 11sBit rate mode : ConstantBit rate : 192 KbpsChannel(s) : 2 channelsSampling rate : 48.0 KHzCompression mode : LossyDelay relative to video : -80msStream size : 71.7 MiB (7%)
</div>
</div>
<div class="sp-wrap">
<div class="sp-head folded">Содержание</div>
<div class="sp-body">– TV6 Москва. Интервью с Эдуардом Сагалаевым
– Интервью с Александром Головинским
– История рекламы
– Концептуализм видеоарта
– Анимация 60 лет назад. Анатолий Прохоров
– Фильмы о любви
– Интервью с Евгением Киселёвым
– Интервью со Станиславом Говорухиным
GeneralComplete name : 1993-03-03 Большая прогулка [Ностальгия].mpgFormat : MPEG-PSFile size : 818 MiBDuration : 34mn 30sOverall bit rate mode : VariableOverall bit rate : 3 314 KbpsWriting library : (dvd5: Jun 16 2014)

VideoID : 224 (0xE0)Format : MPEG VideoFormat version : Version 2Format profile : Main@MainFormat settings, BVOP : YesFormat settings, Matrix : CustomFormat settings, GOP : VariableDuration : 34mn 30sBit rate mode : VariableBit rate : 3 056 KbpsMaximum bit rate : 15.0 MbpsWidth : 720 pixelsHeight : 576 pixelsDisplay aspect ratio : 4:3Frame rate : 25.000 fpsStandard : PALColor space : YUVChroma subsampling : 4:2:0Bit depth : 8 bitsScan type : InterlacedScan order : Top Field FirstCompression mode : LossyBits/(Pixel*Frame) : 0.295Time code of first frame : 00:00:00:00Time code source : Group of pictures headerStream size : 754 MiB (92%)Source encoded stream size : (dvd5: Jun 16 2014)Writing library : (dvd5: Jun 16 2014)

AudioID : 192 (0xC0)Format : MPEG AudioFormat version : Version 1Format profile : Layer 2Duration : 34mn 30sBit rate mode : ConstantBit rate : 192 KbpsChannel(s) : 2 channelsSampling rate : 48.0 KHzCompression mode : LossyDelay relative to video : -40msStream size : 47.4 MiB (6%)
</div>
</div>

Трекер:  [ 10-Сен-2017 19:12 ]

  

Скачать .torrent

Размер .torrent файла 19 KB


Размер: 1.86 GB
Хэш (hash) релиза: 79c32d7b40130c146df44545dbfa632e5ce8a7dd
Подписка на обновления:

Торренты, похожие на Большая прогулка скачать торрент

Форум Название Автор Размер S L Добавлен
Зарубежные фильмы до 2016 ·· Большая прогулка / La Grande Vadrouille (Жерар Ури / Gerard Oury) [1966, Франция, Великобритания, комедия, HDDVDRip 720p] Dub + MVO + Sub Rus, Eng + Original Fre Galfimbul 76355129337.11 GB 0 0 1495206445

18:07

19-Май-17

Зарубежные фильмы до 2016 ·· Большая прогулка / La grande vadrouille (Жерар Ури / Gerard Oury) [1966, Франция, комедия, военный, Blu-ray disc (custom) 1080p] MVO + Dub + Sub Eng, Rus + Original Fre Galfimbul 2490036340023.19 GB 0 0 1458600508

01:48

22-Мар-16

Зарубежные фильмы до 2016 ·· Большая прогулка / La Grande vadrouille (Жерар Ури) [1966 г., Комедия, DVDRip] Galfimbul 14680002561.37 GB 0 0 1364797515

09:25

1-Апр-13

Зарубежные фильмы до 2016 ·· Большая прогулка / La Grande vadrouille (Жерар Ури / Gerard Oury) [1966 г., Комедия, BDRip 720p] Dub + MVO sebladec 74625817466.95 GB 0 0 1302078503

11:28

6-Апр-11

Зарубежные фильмы до 2016 ·· Большая прогулка / La Grande vadrouille (Жерар Ури / Gerard Oury) [1966 г., Комедия, HDRip] Dub sebladec 15633141761.46 GB 2 0 1302074037

10:13

6-Апр-11

Зарубежные фильмы до 2016 ·· Большая прогулка / La grande vadrouille (Жерар Ури / Gérard Oury) [1966, комедия, военный, HDDVDRip, 1080p] sebladec 105397664459.82 GB 0 0 1302073937

10:12

6-Апр-11

Зарубежные фильмы до 2016 ·· Большая прогулка / La Grande vadrouille (Жерар Ури) [1966 г., Комедия, Военный, DVDRip] uzi2009 14680002561.37 GB 1 1 1291731732

17:22

7-Дек-10

Документальные фильмы и телепередачи ·· Прогулки по миру: Большое греческое путешествие 2014 / GREECE 2014 [2015, Документальный, туристический, HDTVRip] Galfimbul 69887130246.51 GB 0 0 1436131198

00:19

6-Июл-15

Еще никто не оставлял запись к записи скачать торрент Большая прогулка . Будь первым!

!Обратная связь