Скачать через торрент [DOC] О, Интернет! Грезы цифрового мира Lo and Behold, Reveries of the Connected World бесплатно русская версия torrent активатор

Если у вас наблюдаются проблемы со скриншотами, переходом по ссылками, скачиванием торрентов - проблемы в блокировщике рекламы AdBlock. #хорошегоДня!


Статистика раздачи
Размер:  433 MB   |    Зарегистрирован:  10 дней   |    .torrent скачан:  7 раз   |   
Раздают:  1  
   
Загрузка...
 
Автор Сообщение

Galfimbul

avatar Galfimbul


О, Интернет! Грезы цифрового мира / Lo and Behold, Reveries of the Connected World

Год выпуска: 2016

Страна: США
Жанр: Документальный, научно-популярный
Продолжительность: 01:34:04

Перевод: Студийный (одноголосый закадровый)
Субтитры: нет
Оригинальная аудиодорожка: нет

Режиссер: Вернер Херцог
В ролях: Вернер Херцог, Лоуренс Краусс, Кевин Митник, Илон Маск, Тед Нельсон, Себастьян Трун, Лусайан Волкович

Описание: Документальная картина от известного режиссера Вернера Херцога погрузит зрителя в кибернетический мир.
Отчего интернет занял в жизни человека такое глобально-значимое место? Как зарождалась популярность этой сети, и сколько было противников и мрачных прогнозов, вплоть до апокалиптических сценариев развития этой технологии? Почему сегодня подобный способ общения и получения информации заменил собой столь многое, начиная от книг и заканчивая созданием семьи через интернет? Где лежат границы развития этого масштабного явления, без которого мы уже не мыслим свою жизнь?
Мы сможем узнать все, в том числе и массу малоизвестных фактов о прошлом, настоящем и будущем глобальной сети, проникшей в каждый аспект человеческой жизнедеятельности.
С немецкой дотошностью и романтичностью Вернер Херцог рассказывает историю интернета, от его пионеров из Калифорнийского университета до современных визионеров вроде Илона Маска. Однако Херцога интересует не только научно-технические достижения или, напротив, апокалиптические прогнозы, связанные с развитием мировой паутины, но прежде всего, как и почему интернет настолько кардинально изменил и продолжает менять нашу жизнь, что даже подсмотренные Херцогом буддистские монахи, едва прервав медитацию, тут же утыкаются в твиттер. Херцог исследует цифровой пейзаж с той же страстью и самоотверженностью, с которыми он раньше пересекал дикие ландшафты Амазонии, Сахары или Антарктиды, и рассказывает о взаимном влиянии двух миров: сетевого и реального, который теперь, после появления интернета, никогда уже не будет прежним

Исходник (ссылка): ...5440365

Рип от: Egorijj.Alien

Качество: HDTVRip
Формат: MP4
Видео: AVC, 480x272, 512 kbps, 25 fps
Аудио: AAC, 2 ch, 48,0 khz, 128 kbps
GeneralComplete name : E:\Видео\О, интернет! Грезы цифрового мира.mp4Format : MPEG-4Format profile : Base MediaCodec ID : isomFile size : 433 MiBDuration : 1h 34mnOverall bit rate mode : VariableOverall bit rate : 643 KbpsEncoded date : UTC 2017-09-10 07:24:18Tagged date : UTC 2017-09-10 07:24:18

VideoID : 1Format : AVCFormat/Info : Advanced Video CodecFormat profile : High@L2.1Format settings, CABAC : YesFormat settings, ReFrames : 8 framesCodec ID : avc1Codec ID/Info : Advanced Video CodingDuration : 1h 34mnBit rate : 512 KbpsMaximum bit rate : 7 948 KbpsWidth : 480 pixelsHeight : 272 pixelsDisplay aspect ratio : 16:9Frame rate mode : ConstantFrame rate : 25.000 fpsColor space : YUVChroma subsampling : 4:2:0Bit depth : 8 bitsScan type : ProgressiveBits/(Pixel*Frame) : 0.157Stream size : 344 MiB (79%)Writing library : x264 core 130 r2273 b3065e6Encoding settings : cabac=1 / ref=8 / deblock=1:0:0 / analyse=0x3:0x113 / me=hex / subme=8 / psy=1 / psy_rd=1.00:0.00 / mixed_ref=1 / me_range=16 / chroma_me=1 / trellis=1 / 8x8dct=1 / cqm=0 / deadzone=21,11 / fast_pskip=1 / chroma_qp_offset=-2 / threads=3 / lookahead_threads=1 / sliced_threads=0 / nr=0 / decimate=1 / interlaced=0 / bluray_compat=0 / constrained_intra=0 / bframes=8 / b_pyramid=2 / b_adapt=1 / b_bias=0 / direct=3 / weightb=1 / open_gop=0 / weightp=2 / keyint=250 / keyint_min=25 / scenecut=40 / intra_refresh=0 / rc_lookahead=40 / rc=2pass / mbtree=1 / bitrate=512 / ratetol=1.0 / qcomp=0.60 / qpmin=0 / qpmax=69 / qpstep=4 / cplxblur=20.0 / qblur=0.5 / ip_ratio=1.40 / aq=1:1.00Encoded date : UTC 2017-09-10 07:24:18Tagged date : UTC 2017-09-10 07:24:43

AudioID : 2Format : AACFormat/Info : Advanced Audio CodecFormat profile : LCCodec ID : 40Duration : 1h 34mnBit rate mode : VariableBit rate : 128 KbpsMaximum bit rate : 133 KbpsChannel(s) : 2 channelsChannel positions : Front: L RSampling rate : 48.0 KHzCompression mode : LossyStream size : 86.1 MiB (20%)Encoded date : UTC 2017-09-10 07:24:37Tagged date : UTC 2017-09-10 07:24:43


Трекер:  [ 10-Сен-2017 17:42 ]

  

Скачать .torrent

Размер .torrent файла 17 KB


Размер: 433 MB
Хэш (hash) релиза: d6448601379322cd31d1e24d3cafe2fb1210e9fb

Еще никто не оставлял запись к записи скачать торрент [DOC] О, Интернет! Грезы цифрового мира Lo and Behold, Reveries of the Connected World . Будь первым!

!Обратная связь