Скачать через торрент Дай Мне Руку, Любовь Ver Elini Aşk Фильм бесплатно в хорошем качестве torrent

Скачивайте на UnionPeer.org фильмы через торрент без регистрации. Новинки кино в хорошем качестве через торрент. На UnionPeer.org можно скачать через торрент фильмы 2014 и 2015 годов. Самые новые фильмы.

Скачать торрент Дай Мне Руку, Любовь Ver Elini Aşk бесплатно через .torrent фильм мультфильм сериал

Если у вас наблюдаются проблемы со скриншотами, переходом по ссылками, скачиванием торрентов - проблемы в блокировщике рекламы AdBlock. #хорошегоДня!


Статистика раздачи
Размер:  1.59 GB   |    Зарегистрирован:  11 дней   |    .torrent скачан:  4 раза   |   
Раздают:  1  
   
Загрузка...
 
Автор Сообщение

Galfimbul

avatar Galfimbul


Дай Мне Руку, Любовь / Ver Elini Aşk

Год выпуска: 2017
Страна: Турция
Производство: Salacak Yapım
Жанр: Романтическая комедия
Серии (количество): 1 (??)
Продолжительность: ~ 1:46:00 / каждая серия
Субтитры: Русские, DiziMania

Режиссёр: Бора Онур / Bora Onur

В ролях: Али Ил / Ali İl
Севда Эргинджи / Sevda Erginci
Кёксал Энгюр / Köksal Engür
Асуман Дабак / Asuman Dabak
Хакан Пишкин / Hakan Pişkin
Джерен Коч / Ceren Koç
Бушра Чам / Büşra Çam
Гёкай Мюфтюоглу / Gökay Müftüoğlu

Описание: Каан безответственный бабник, городской мужчина живущий в Стамбуле с маленькой дочерью Су, она родилась в Америке от женщины, с которой он провел лишь одну ночь. И однажды он знакомится с Айпери, которая приехала из деревни в поисках старшей сестры. Айпери начинает работать няней маленькой Су. Однако мнения Каана и Айпери расходятся во многих вещах, и они спорят по любому поводу... Но молодые люди ещё не знают, что их судьба была определена много лет назад во времена Кипрского конфликта...

Ссылка на предыдущие и альтернативные раздачи:

Качество: WEBRip (720р)
Формат: MP4
Видео кодек: H.264
Аудио кодек: AAC
Видео: MPEG4, Video (H264), 1280x720, 29.97fps, 1 980 Kbps
Аудио: AAC, 44100Hz, stereo, 151kbps
General
Complete name : I:\Day.Mne.Ruku.Lubov.2017.russ.sub.WEBRip720p\Day.Mne.Ruku.Lubov.s01.e01.2017.russ.sub.WEBRip720p.MP4
Format : MPEG-4
Format profile : Base Media
Codec ID : isom
File size : 1.59 GiB
Duration : 1h 46mn
Overall bit rate mode : Variable
Overall bit rate : 2 140 Kbps
Writing application : Lavf56.25.101

Video
ID : 1
Format : AVC
Format/Info : Advanced Video Codec
Format profile : High@L3.1
Format settings, CABAC : Yes
Format settings, ReFrames : 4 frames
Codec ID : avc1
Codec ID/Info : Advanced Video Coding
Duration : 1h 46mn
Bit rate : 1 980 Kbps
Width : 1 280 pixels
Height : 720 pixels
Display aspect ratio : 16:9
Frame rate mode : Constant
Frame rate : 29.970 fps
Color space : YUV
Chroma subsampling : 4:2:0
Bit depth : 8 bits
Scan type : Progressive
Bits/(Pixel*Frame) : 0.072
Stream size : 1.48 GiB (93%)
Writing library : x264 core 142
Encoding settings : cabac=1 / ref=3 / deblock=1:0:0 / analyse=0x3:0x113 / me=hex / subme=7 / psy=1 / psy_rd=1.00:0.00 / mixed_ref=1 / me_range=16 / chroma_me=1 / trellis=1 / 8x8dct=1 / cqm=0 / deadzone=21,11 / fast_pskip=1 / chroma_qp_offset=-2 / threads=6 / lookahead_threads=1 / sliced_threads=0 / nr=0 / decimate=1 / interlaced=0 / bluray_compat=0 / constrained_intra=0 / bframes=3 / b_pyramid=2 / b_adapt=1 / b_bias=0 / direct=1 / weightb=1 / open_gop=0 / weightp=2 / keyint=30 / keyint_min=3 / scenecut=40 / intra_refresh=0 / rc_lookahead=30 / rc=2pass / mbtree=1 / bitrate=1980 / ratetol=1.0 / qcomp=0.60 / qpmin=0 / qpmax=69 / qpstep=4 / cplxblur=20.0 / qblur=0.5 / ip_ratio=1.40 / aq=1:1.00

Audio
ID : 2
Format : AAC
Format/Info : Advanced Audio Codec
Format profile : LC
Codec ID : 40
Duration : 1h 46mn
Bit rate mode : Variable
Bit rate : 152 Kbps
Maximum bit rate : 192 Kbps
Channel(s) : 2 channels
Channel positions : Front: L R
Sampling rate : 44.1 KHz
Compression mode : Lossy
Delay relative to video : 67ms
Stream size : 116 MiB (7%)


Трекер:  [ 10-Сен-2017 17:24 ]

  

Скачать .torrent

Размер .torrent файла 16 KB


Размер: 1.59 GB
Хэш (hash) релиза: 919d6f0802a95044200327b59eeb4d953f7e7d31
Подписка на обновления:

Еще никто не оставлял запись к записи скачать торрент Дай Мне Руку, Любовь Ver Elini Aşk . Будь первым!

!Обратная связь