Скачать через торрент Сколько стоит счастье Серии: 1-4 из 4 Фильм бесплатно в хорошем качестве torrent

Скачивайте на UnionPeer.org фильмы через торрент без регистрации. Новинки кино в хорошем качестве через торрент. На UnionPeer.org можно скачать через торрент фильмы 2014 и 2015 годов. Самые новые фильмы.

Скачать торрент Сколько стоит счастье Серии: 1-4 из 4 бесплатно через .torrent фильм мультфильм сериал

Если у вас наблюдаются проблемы со скриншотами, переходом по ссылками, скачиванием торрентов - проблемы в блокировщике рекламы AdBlock. #хорошегоДня!


Статистика раздачи
Размер:  10.5 GB   |    Зарегистрирован:  9 дней   |    .torrent скачан:  27 раз   |   
Раздают:  3  
   
Загрузка...
 
Автор Сообщение

Galfimbul

avatar Galfimbul


Сколько стоит счастье

Год выпуска: 2016
Производство: Кинокомпания "Русское"
Жанр: мелодрама
Продолжительность: ~00:45:00 серия
Субтитры: нет

Режиссёр: Роман Просвирнин

В ролях: Наталья Терехова, Роман Ладнев, Александр Константинов, Максим Юдин, Татьяна Кузнецова, Юлия Яблонская, Виктория Лукина, Андрей Аверьянов, Артём Фадеев, Геннадий Ёлкин, Станислав Сальников, Ирина Основина, Ирина Хруль, Наталья Смолина, Елена Коровчук, Елена Антипова, Ирина Булгакова, Артём Банников, Иван Чиров, Миша Зубаревич

Описание: Жизнь школьной учительницы Нины (Наталья Терехова) трудно назвать счастливой. Все семейные тяготы она тащит на себе – дом, работу, мужа Сашу (Роман Ладнев) и сына Никиту (Максим Юдин).
Но вот однажды Нина выигрывает в лотерею пятнадцать миллионов рублей. Все коллеги, соседи и знакомые завидуют ей, особенно лучшая подруга Света (Виктория Лукина) – одинокая женщина, тайком крутящая роман с ее мужем.
Однако мысли Нины заняты совсем другим. Недавно спустя почти двадцать лет домой вернулся ее сосед - Андрей (Александр Константинов). В памяти женщины оживает давняя история любви. Нина понимает, что при других обстоятельствах ее жизнь могла бы сложиться иначе, и сейчас есть шанс все исправить.
Теперь Нине придется сделать выбор: на одной чаше весов находится счастье и благополучие ее семьи, на другой – ее собственное…

Реклама: Нет.

Кинопоиск

Sample

Качество: HDTV 1080i
Формат: TS
Видео кодек: AVC
Аудио кодек: MP2
Видео: MPEG4 AVC Video, H264, 16:9, 1920x1080, 25 fps, ~7870 kbps
Аудио: MP2, 2 ch, 192 kbps, 16 bits, 48.0 KHz
General
ID : 1 (0x1)
Complete name : K:\Сколько стоит счастье 2016 HDTV 1080i\Skolko.stoit.schastie.01.2016.HDTV.1080i.ts
Format : MPEG-TS
File size : 5.35 GiB
Duration : 1h 30mn
Overall bit rate mode : Variable
Overall bit rate : 8 489 Kbps

Video
ID : 2911 (0xB5F)
Menu ID : 1192 (0x4A8)
Format : AVC
Format/Info : Advanced Video Codec
Format profile : High@L4.0
Format settings, CABAC : Yes
Format settings, ReFrames : 4 frames
Codec ID : 27
Duration : 1h 30mn
Bit rate : 7 876 Kbps
Width : 1 920 pixels
Height : 1 080 pixels
Display aspect ratio : 16:9
Frame rate : 25.000 fps
Color space : YUV
Chroma subsampling : 4:2:0
Bit depth : 8 bits
Scan type : MBAFF
Bits/(Pixel*Frame) : 0.152
Stream size : 4.97 GiB (93%)

Audio
ID : 2912 (0xB60)
Menu ID : 1192 (0x4A8)
Format : MPEG Audio
Format version : Version 1
Format profile : Layer 2
Codec ID : 3
Duration : 1h 30mn
Bit rate mode : Constant
Bit rate : 192 Kbps
Channel count : 2 channels
Sampling rate : 48.0 KHz
Compression mode : Lossy
Stream size : 124 MiB (2%)
Language : Russian


Трекер:  [ 10-Сен-2017 16:48 ]

  

Скачать .torrent

Размер .torrent файла 53 KB


Размер: 10.5 GB
Хэш (hash) релиза: a4d615f4e09aa225c3791f74e98cfcaf20cc9c53
Подписка на обновления:

Торренты, похожие на Сколько стоит счастье Серии: 1-4 из 4 скачать торрент

Форум Название Автор Размер S L Добавлен
Российские сериалы ·· Сколько стоит счастье / Серии: 1-4 из 4 (Роман Просвирнин) [2016, Мелодрама, HDTVRip] Galfimbul 29406699522.74 GB 0 0 1487088942

19:15

14-Фев-17

Еще никто не оставлял запись к записи скачать торрент Сколько стоит счастье Серии: 1-4 из 4 . Будь первым!

!Обратная связь