Скачать через торрент Сжигая мосты Серии: 1-4 из 4 Фильм бесплатно в хорошем качестве torrent

Скачивайте на UnionPeer.org фильмы через торрент без регистрации. Новинки кино в хорошем качестве через торрент. На UnionPeer.org можно скачать через торрент фильмы 2014 и 2015 годов. Самые новые фильмы.

Скачать торрент Сжигая мосты Серии: 1-4 из 4 бесплатно через .torrent фильм мультфильм сериал

Если у вас наблюдаются проблемы со скриншотами, переходом по ссылками, скачиванием торрентов - проблемы в блокировщике рекламы AdBlock. #хорошегоДня!


Статистика раздачи
Размер:  10.56 GB   |    Зарегистрирован:  9 дней   |    .torrent скачан:  28 раз   |   
Раздают:  2  
   
Загрузка...
 
Автор Сообщение

Galfimbul

avatar Galfimbul


Сжигая мосты

Год выпуска: 2017
Производство: Кинокомпания "Паламеда Продакшн"
Жанр: мелодрама
Продолжительность: ~00:45:00 серия
Субтитры: нет

Режиссёр: Павел Снисаренко

В ролях: Вероника Пляшкевич, Юрий Батурин, Александр Песков, Ольга Бурлакова, Святослав Астрамович, Денис Паршин, Ангелина Ландышко, Марк Нестор, Руслан Чернецкий, Юлианна Михневич, Олег Ткачёв, Евгений Булка, Елена Побегаева, Сергей Ходьков, Андрей Милюхин, Василий Ницко

Описание: Вера живет с дочкой Лизой и держит небольшой магазин. В один из дней туда приходит незнакомец и сообщает Вере информацию, после которой она имитирует пожар в своем доме и вместе с дочкой отправляется в Москву. Там Лиза устраивается помощницей в дом бизнесмена Кравченко. В это же время из тюрьмы выходит бывший муж Веры и тоже приезжает к Кравченко. Он требует у Кравченко денег, иначе расскажет его сыну Денису, что тот не родной. Денис случайно подслушивает этот разговор, начинает вести себя неадекватно и издеваться над прислугой. Кравченко вынужден нанять новую прислугу, и по объявлению к нему приходит Вера. Денис издевается и над Верой, но она всё терпит и относится к нему с нежностью. Ни Лиза, ни Денис, ни семья Кравченко не догадываются, что Вера не просто так устроилась прислугой.

Реклама: Нет.



Sample

Качество: HDTV 1080i
Формат: TS
Видео кодек: AVC
Аудио кодек: MP2
Видео: MPEG4 AVC Video, H264, 16:9, 1920x1080, 25 fps, ~7870 kbps
Аудио: MP2, 2 ch, 192 kbps, 16 bits, 48.0 KHz
General
ID : 1 (0x1)
Complete name : K:\Сжигая мосты 2017 HDTV 1080i\Szhigaya.mosty.01.2017.HDTV.1080i.ts
Format : MPEG-TS
File size : 5.38 GiB
Duration : 1h 30mn
Overall bit rate mode : Variable
Overall bit rate : 8 485 Kbps

Video
ID : 2911 (0xB5F)
Menu ID : 1192 (0x4A8)
Format : AVC
Format/Info : Advanced Video Codec
Format profile : High@L4.0
Format settings, CABAC : Yes
Format settings, ReFrames : 4 frames
Codec ID : 27
Duration : 1h 30mn
Bit rate : 7 872 Kbps
Width : 1 920 pixels
Height : 1 080 pixels
Display aspect ratio : 16:9
Frame rate : 25.000 fps
Color space : YUV
Chroma subsampling : 4:2:0
Bit depth : 8 bits
Scan type : MBAFF
Bits/(Pixel*Frame) : 0.152
Stream size : 5.00 GiB (93%)

Audio
ID : 2912 (0xB60)
Menu ID : 1192 (0x4A8)
Format : MPEG Audio
Format version : Version 1
Format profile : Layer 2
Codec ID : 3
Duration : 1h 30mn
Bit rate mode : Constant
Bit rate : 192 Kbps
Channel count : 2 channels
Sampling rate : 48.0 KHz
Compression mode : Lossy
Delay relative to video : -80ms
Stream size : 125 MiB (2%)
Language : Russian


Трекер:  [ 10-Сен-2017 16:48 ]

  

Скачать .torrent

Размер .torrent файла 53 KB


Размер: 10.56 GB
Хэш (hash) релиза: 5aad4a9a45e4593a9cd0c2a1d5ae19920bde6a0d
Подписка на обновления:

Торренты, похожие на Сжигая мосты Серии: 1-4 из 4 скачать торрент

Форум Название Автор Размер S L Добавлен
Российские сериалы ·· Сжигая мосты / Серии: 1-4 из 4 (Павел Снисаренко) [2017, мелодрама, SATRip-AVC] Galfimbul 22626079662.11 GB 0 0 1495399164

23:39

21-Май-17

Российские сериалы ·· Сжигая мосты / Сезон: 1 / Серии: 1 - 4 из 4 (Павел Снисаренко) [2017, Мелодрама, HDTVRip] Galfimbul 29382451202.74 GB 0 0 1495529337

11:48

23-Май-17

Еще никто не оставлял запись к записи скачать торрент Сжигая мосты Серии: 1-4 из 4 . Будь первым!

!Обратная связь