Скачать через торрент Уровень The Level Фильм бесплатно в хорошем качестве torrent

Скачивайте на UnionPeer.org фильмы через торрент без регистрации. Новинки кино в хорошем качестве через торрент. На UnionPeer.org можно скачать через торрент фильмы 2014 и 2015 годов. Самые новые фильмы.

Скачать торрент Уровень The Level бесплатно через .torrent фильм мультфильм сериал

Если у вас наблюдаются проблемы со скриншотами, переходом по ссылками, скачиванием торрентов - проблемы в блокировщике рекламы AdBlock. #хорошегоДня!


Статистика раздачи
Размер:  3.83 GB   |    Зарегистрирован:  11 дней   |    .torrent скачан:  7 раз   |   
Раздают:  1  
   
Загрузка...
 
Автор Сообщение

Galfimbul

avatar Galfimbul


Уровень / The Level

Год выпуска: 2016
Страна: Великобритания, Hillbilly Television
Жанр: Триллер, драма
Продолжительность: 6~ 00:45:00

Перевод: Субтитры Notabenoid SeRRegina

Режиссёр: Марк Эверест, Энди Годдард
В ролях: Линдси Колсон, Роб Джеймс-Колльер, Филип Гленистер, Ноэль Кларк, Джофф Белл, Лорни МакФадьен, Джейн Хазлгроув, Рут Маделей, Эшли Кумар, Келли Харрисон

Описание: Детектив получает задание по расследованию убийства очередного наркоторговца. Кто бы мог подумать, что это дело окажется связано не только с профессиональной деятельностью главной героини, но и ее личной жизнью. Вскоре выясняется, что детектив, ведущая дело, является прямым свидетелем нераскрытого преступления.

Ссылка на предыдущие и альтернативные раздачи:

Сэмпл: http://sendfile.su/1360921

Качество: HDTVRip 720p
Контейнер: MKV
Видео: MPEG-4 AVC, ~ 2000 Кбит/с, 1280x720
Аудио: Английсикй (AC3, 2 ch, 192 Кбит/с)
Субтитры: Русские
Реклама:
Отсутствует
1-6
General
Complete name : E:\The Level\S01E01.mkv
Format : Matroska
File size : 705 MiB
Duration : 45mn 34s
Overall bit rate : 2 163 Kbps
Encoded date : UTC 2017-09-10 12:01:43
Writing application : mkvmerge v15.0.0 ('Duel with the Devil') 64-bit
Writing library : libebml v1.3.5 + libmatroska v1.4.5

Video
ID : 1
Format : AVC
Format/Info : Advanced Video Codec
Format profile : High@L4.1
Format settings, CABAC : Yes
Format settings, ReFrames : 5 frames
Codec ID : V_MPEG4/ISO/AVC
Duration : 45mn 34s
Bit rate : 1 928 Kbps
Width : 1 280 pixels
Height : 720 pixels
Display aspect ratio : 16:9
Frame rate : 25.000 fps
Color space : YUV
Chroma subsampling : 4:2:0
Bit depth : 8 bits
Scan type : Progressive
Bits/(Pixel*Frame) : 0.084
Stream size : 629 MiB (89%)
Writing library : x264 core 148 r2705 3f5ed56
Encoding settings : cabac=1 / ref=5 / deblock=1:0:0 / analyse=0x3:0x113 / me=umh / subme=8 / psy=1 / psy_rd=1.00:0.00 / mixed_ref=1 / me_range=16 / chroma_me=1 / trellis=1 / 8x8dct=1 / cqm=0 / deadzone=21,11 / fast_pskip=1 / chroma_qp_offset=-2 / threads=18 / lookahead_threads=3 / sliced_threads=0 / nr=0 / decimate=1 / interlaced=0 / bluray_compat=0 / constrained_intra=0 / bframes=3 / b_pyramid=2 / b_adapt=2 / b_bias=0 / direct=3 / weightb=1 / open_gop=0 / weightp=2 / keyint=250 / keyint_min=25 / scenecut=40 / intra_refresh=0 / rc_lookahead=50 / rc=crf / mbtree=1 / crf=18.0 / qcomp=0.60 / qpmin=0 / qpmax=69 / qpstep=4 / ip_ratio=1.40 / aq=1:1.00
Language : English

Audio
ID : 2
Format : AC-3
Format/Info : Audio Coding 3
Mode extension : CM (complete main)
Codec ID : A_AC3
Duration : 45mn 34s
Bit rate mode : Constant
Bit rate : 192 Kbps
Channel(s) : 2 channels
Channel positions : Front: L R
Sampling rate : 48.0 KHz
Bit depth : 16 bits
Stream size : 62.6 MiB (9%)
Language : English

Text
ID : 3
Format : UTF-8
Codec ID : S_TEXT/UTF8
Codec ID/Info : UTF-8 Plain Text
Language : Russian


Трекер:  [ 10-Сен-2017 16:24 ]

  

Скачать .torrent

Размер .torrent файла 39 KB


Размер: 3.83 GB
Хэш (hash) релиза: 9df2eaf8bcd907d4e5fc9069a18d8bd700b7a57f
Подписка на обновления:

Еще никто не оставлял запись к записи скачать торрент Уровень The Level . Будь первым!

!Обратная связь