Скачать через торрент Летающий дедушка Der fliegende Grossvater Фильм бесплатно в хорошем качестве torrent

Скачивайте на UnionPeer.org фильмы через торрент без регистрации. Новинки кино в хорошем качестве через торрент. На UnionPeer.org можно скачать через торрент фильмы 2014 и 2015 годов. Самые новые фильмы.

Скачать торрент Летающий дедушка Der fliegende Grossvater бесплатно через .torrent фильм мультфильм сериал

Если у вас наблюдаются проблемы со скриншотами, переходом по ссылками, скачиванием торрентов - проблемы в блокировщике рекламы AdBlock. #хорошегоДня!


Статистика раздачи
Размер:  174 MB   |    Зарегистрирован:  8 дней   |    .torrent скачан:  1 раз   |   
Раздают:  1  
   
Загрузка...
 
Автор Сообщение

Galfimbul

avatar Galfimbul


Летающий дедушка / Der fliegende Grossvater / Der fliegende Großvater
Страна: ГДР
Жанр: мультфильм
Год выпуска: 1964
Продолжительность: 00:09:33Перевод: не требуется
Субтитры: нетРежиссер: Лотар Барке / Lothar Barke | Релиз: Описание: По мотивам книги Х. Белинга. Маленький Райнер мечтает о большом воздушном змее и дедушка делает его для внука. Но что же из этого выйдет? Для них начинается захватывающее воздушное приключение.Семпл: http://sendfile.su/1360913Тип релиза: DVDRip
Контейнер: AVI

Видео: 640x480 (1.33:1), 25 fps, XviD build 67 ~2349 kbps avg, 0.31 bit/pixel
Аудио: 48 kHz, AC3 Dolby Digital, 2/0 (L,R) ch, ~192 kbps
GeneralComplete name : Летающий дедушка 1964 (ГДР, DEFA).aviFormat : AVIFormat/Info : Audio Video InterleaveFile size : 174 MiBDuration : 9 min 33 sOverall bit rate : 2 552 kb/sWriting application : VirtualDubMod 1.5.10.2 (build 2542/release)Writing library : VirtualDubMod build 2542/release

VideoID : 0Format : MPEG-4 VisualFormat profile : Advanced Simple@L5Format settings, BVOP : 2Format settings, QPel : NoFormat settings, GMC : No warppointsFormat settings, Matrix : CustomCodec ID : XVIDCodec ID/Hint : XviDDuration : 9 min 33 sBit rate : 2 350 kb/sWidth : 640 pixelsHeight : 480 pixelsDisplay aspect ratio : 4:3Frame rate : 25.000 FPSColor space : YUVChroma subsampling : 4:2:0Bit depth : 8 bitsScan type : ProgressiveCompression mode : LossyBits/(Pixel*Frame) : 0.306Stream size : 161 MiB (92%)Writing library : XviD 67

AudioID : 1Format : AC-3Format/Info : Audio Coding 3Format settings, Endianness : BigCodec ID : 2000Duration : 9 min 33 sBit rate mode : ConstantBit rate : 192 kb/sChannel(s) : 2 channelsChannel positions : Front: L RSampling rate : 48.0 kHzFrame rate : 31.250 FPS (1536 SPF)Bit depth : 16 bitsCompression mode : LossyStream size : 13.1 MiB (8%)Alignment : Split accross interleavesInterleave, duration : 40 ms (1.00 video frame)Interleave, preload duration : 500 msService kind : Complete Main


Трекер:  [ 10-Сен-2017 16:06 ]

  

Скачать .torrent

Размер .torrent файла 14 KB


Размер: 174 MB
Хэш (hash) релиза: d3aa5115609951cdd2a571dfec9a11c6394259d3
Подписка на обновления:

Торренты, похожие на Летающий дедушка Der fliegende Grossvater скачать торрент

Форум Название Автор Размер S L Добавлен
Мультфильмы до 2016 ·· Летающий дедушка / Der fliegende Grossvater / Der fliegende Großvater (Лотар Барке / Lothar Barke) [1964, ГДР, мультфильм, DVDRemux] Galfimbul 350959616335 MB 0 0 1505048793

16:06

10-Сен-17

Еще никто не оставлял запись к записи скачать торрент Летающий дедушка Der fliegende Grossvater . Будь первым!

!Обратная связь