Скачать через торрент Летающий дедушка Der fliegende Grossvater Фильм бесплатно в хорошем качестве torrent

Скачивайте на UnionPeer.org фильмы через торрент без регистрации. Новинки кино в хорошем качестве через торрент. На UnionPeer.org можно скачать через торрент фильмы 2014 и 2015 годов. Самые новые фильмы.

Скачать торрент Летающий дедушка Der fliegende Grossvater бесплатно через .torrent фильм мультфильм сериал

Если у вас наблюдаются проблемы со скриншотами, переходом по ссылками, скачиванием торрентов - проблемы в блокировщике рекламы AdBlock. #хорошегоДня!


Статистика раздачи
Размер:  335 MB   |    Зарегистрирован:  2 месяца 14 дней   |    .torrent скачан:  2 раза   |   
Раздают:  1  
   
Загрузка...
 
Автор Сообщение

Galfimbul

avatar Galfimbul


Летающий дедушка / Der fliegende Grossvater / Der fliegende Großvater
Страна: ГДР
Жанр: мультфильм
Год выпуска: 1964
Продолжительность: 00:09:33Перевод: не требуется
Субтитры: нетРежиссер: Лотар Барке / Lothar Barke | Релиз: Описание: По мотивам книги Х. Белинга. Маленький Райнер мечтает о большом воздушном змее и дедушка делает его для внука. Но что же из этого выйдет? Для них начинается захватывающее воздушное приключение.Семпл: http://sendfile.su/1360917Тип релиза: DVDRemux
Контейнер: MPG

Видео: 720x576 (4:3) @ 768x576, 25.000 fps, MPEG-2 Video, ~4607 kbps, 0.444 bits/pixel
Аудио: 48 kHz, AC3 Dolby Digital, 2/0 (L,R) ch, ~192 kbps
GeneralComplete name : Летающий дедушка 1964 (ГДР, DEFA).mpgFormat : MPEG-PSFile size : 335 MiBDuration : 9 min 33 sOverall bit rate mode : VariableOverall bit rate : 4 896 kb/s

VideoID : 224 (0xE0)Format : MPEG VideoFormat version : Version 2Format profile : Main@MainFormat settings, BVOP : YesFormat settings, Matrix : CustomFormat settings, GOP : M=3, N=12Format settings, picture structure : FrameDuration : 9 min 33 sBit rate mode : VariableBit rate : 4 607 kb/sMaximum bit rate : 6 000 kb/sWidth : 720 pixelsHeight : 576 pixelsDisplay aspect ratio : 4:3Frame rate : 25.000 FPSStandard : PALColor space : YUVChroma subsampling : 4:2:0Bit depth : 8 bitsScan type : InterlacedScan order : Top Field FirstCompression mode : LossyBits/(Pixel*Frame) : 0.444Time code of first frame : 00:00:00:00Time code source : Group of pictures headerGOP, Open/Closed : ClosedStream size : 315 MiB (94%)

AudioID : 189 (0xBD)-128 (0x80)Format : AC-3Format/Info : Audio Coding 3Format settings, Endianness : BigMuxing mode : DVD-VideoDuration : 9 min 33 sBit rate mode : ConstantBit rate : 192 kb/sChannel(s) : 2 channelsChannel positions : Front: L RSampling rate : 48.0 kHzFrame rate : 31.250 FPS (1536 SPF)Bit depth : 16 bitsCompression mode : LossyStream size : 13.1 MiB (4%)Service kind : Complete Main


Трекер:  [ 10-Сен-2017 16:06 ]

  

Скачать .torrent

Размер .torrent файла 13 KB


Размер: 335 MB
Хэш (hash) релиза: c08e35734deec80c0fd0486b63f3886f9f1f24d8
Подписка на обновления:

Торренты, похожие на Летающий дедушка Der fliegende Grossvater скачать торрент

Форум Название Автор Размер S L Добавлен
Мультфильмы до 2016 ·· Летающий дедушка / Der fliegende Grossvater / Der fliegende Großvater (Лотар Барке / Lothar Barke) [1964, ГДР, мультфильм, DVDRip] Galfimbul 182964224174 MB 0 0 1505048802

16:06

10-Сен-17

Еще никто не оставлял запись к записи скачать торрент Летающий дедушка Der fliegende Grossvater . Будь первым!

!Обратная связь