Скачать через торрент Высокие отношения Серии: 1-4 из 4 Фильм бесплатно в хорошем качестве torrent

Скачивайте на UnionPeer.org фильмы через торрент без регистрации. Новинки кино в хорошем качестве через торрент. На UnionPeer.org можно скачать через торрент фильмы 2014 и 2015 годов. Самые новые фильмы.

Скачать торрент Высокие отношения Серии: 1-4 из 4 бесплатно через .torrent фильм мультфильм сериал

Если у вас наблюдаются проблемы со скриншотами, переходом по ссылками, скачиванием торрентов - проблемы в блокировщике рекламы AdBlock. #хорошегоДня!


Статистика раздачи
Размер:  4.57 GB   |    Зарегистрирован:  2 месяца 13 дней   |    .torrent скачан:  23 раза   |   
Раздают:  1  
   
Загрузка...
 
Автор Сообщение

Galfimbul

avatar Galfimbul


Высокие отношения

Год выпуска: 2017
Производство: Epic Media
Жанр: мелодрама
Продолжительность: ~00:50:00 серия
Субтитры: нет

Режиссёр: Александр Созонов

В ролях: Наталья Скоморохова, Игорь Стам, Эльдар Лебедев, Нина Рось, Егор Тимцуник, Нелла Стрекаловская, Михаил Химичев, Дмитрий Комов, Татьяна Тимакова, Любовь Соколинская, Сергей Тэсслер, Марина Калецкая, Дмитрий Гудочкин, Ирина Бразговка, Роман Печерский, Сергей Тезов, Анастасия Архипова, Наталья Дедейко, Бекарий Цулукидзе

Описание: Тщательно распланированная жизнь тридцатилетней Лены идет под откос, когда Андрей расстается с ней вместо того, чтобы сделать долгожданное предложение руки и сердца. У Лены появляется новый план: вернуть идеального Андрея, заставив его ревновать с помощью подставного «жениха» - отчаянного скалолаза Романа. Взаимовыгодная сделка Лены и Романа осложняется тем, что эти двое не выносят друг друга. Их попытки как можно достовернее изображать влюбленных на глазах у Андрея приводят к совсем уж непредсказуемым результатам…

Реклама: Нет.



Sample

Качество: WEBRip 1080p
Формат: MKV
Видео кодек: H.264
Аудио кодек: AC3
Видео: MPEG4 AVC Video, H264, 16:9, 1920x1080, 25 fps, ~2860 kbps, 0.055 bit/pixel
Аудио: AC3 Dolby Digital, 44,1 kHz, 2/0 (L,R) ch, 192 kbps
General
Unique ID : 75089314366529903015206665576270446355 (0x387DAD080EC511012DA5C2541B22BF13)
Complete name : K:\Высокие отношения 2017\01.Vysokie.otnochenija.2017.WEB-DL.1080.Files-x.mkv
Format : Matroska
Format version : Version 4 / Version 2
File size : 1.09 GiB
Duration : 49mn 53s
Overall bit rate : 3 120 Kbps
Writing application : Lavf56.25.101
Writing library : Lavf56.25.101

Video
ID : 1
Format : AVC
Format/Info : Advanced Video Codec
Format profile : High@L4.0
Format settings, CABAC : Yes
Format settings, ReFrames : 2 frames
Codec ID : V_MPEG4/ISO/AVC
Duration : 49mn 53s
Bit rate : 2 866 Kbps
Width : 1 920 pixels
Height : 1 080 pixels
Display aspect ratio : 16:9
Frame rate mode : Constant
Frame rate : 25.000 fps
Color space : YUV
Chroma subsampling : 4:2:0
Bit depth : 8 bits
Scan type : Progressive
Bits/(Pixel*Frame) : 0.055
Stream size : 1 023 MiB (92%)
Default : Yes
Forced : No
Color primaries : BT.709
Transfer characteristics : BT.709
Matrix coefficients : BT.709

Audio
ID : 2
Format : AC-3
Format/Info : Audio Coding 3
Mode extension : CM (complete main)
Format settings, Endianness : Big
Codec ID : A_AC3
Duration : 49mn 53s
Bit rate mode : Constant
Bit rate : 192 Kbps
Channel count : 2 channels
Channel positions : Front: L R
Sampling rate : 44.1 KHz
Bit depth : 16 bits
Compression mode : Lossy
Delay relative to video : 1mn 5s
Stream size : 68.5 MiB (6%)
Default : Yes
Forced : No


Трекер:  [ 10-Сен-2017 15:48 ]

  

Скачать .torrent

Размер .torrent файла 23 KB


Размер: 4.57 GB
Хэш (hash) релиза: 05b691b07a6c3c7b41605ca84c320abfc3eb8699
Подписка на обновления:

Торренты, похожие на Высокие отношения Серии: 1-4 из 4 скачать торрент

Форум Название Автор Размер S L Добавлен
Российские сериалы ·· Высокие отношения / Серии: 1-2 из 4 (Александр Созонов ) [2017,мелодрама,SATRip-AVC] Galfimbul 12175722311.13 GB 0 0 1504373049

20:24

2-Сен-17

Российские сериалы ·· Высокие отношения / Сезон: 1 / Серии: 1 - 4 из 4 (Александр Созонов) [2017, мелодрама, SATRip] Galfimbul 25169428482.34 GB 0 0 1504461759

21:02

3-Сен-17

Еще никто не оставлял запись к записи скачать торрент Высокие отношения Серии: 1-4 из 4 . Будь первым!

!Обратная связь