Скачать через торрент Глядя на полумесяц Looking up at the Half-Moon бесплатно Аниме Все серии на русском torrent

Если у вас наблюдаются проблемы со скриншотами, переходом по ссылками, скачиванием торрентов - проблемы в блокировщике рекламы AdBlock. #хорошегоДня!


Статистика раздачи
Размер:  2.47 GB   |    Зарегистрирован:  10 дней   |    .torrent скачан:  2 раза   |   
Раздают:  1  
   
Загрузка...
 
Автор Сообщение

Galfimbul

avatar Galfimbul


Глядя на полумесяц / Looking up at the Half-Moon / Hanbun no Tsuki ga Noboru Sora / 半分の月がのぼる空

Год выпуска: 2006
Страна: Япония
Жанр: Драма, Романтика
Продолжительность: 6 эпизодов по 25 минут
Перевод и озвучивание: одноголосый (муж.) Suzaku

Описание: В основе сюжета лежит история любви (или точнее пути к ее обретению) двух молодых людей, встретившихся в больнице во время длительного лечения. В центре повествования - главный герой, Юичи, страдающий от гепатита. Знакомство с Рикой, проведшей в больнице большую часть своей жизни из-за тяжелого сердечного заболевания, приносит в его жизнь доселе неведомые страсти.

Названия эпизодов:
01. Akiko-san, the Girl and Akutagawa Ryuunosuke
02. Inheritance of the Tada Collection
03. Ebizaki Collection's demise and...
04. Only One Day of School Life
05. The One Minute Which Has Been Stopped
06. As For Our Both Hands

Студия: Group TAC
Режиссёр: Matsushita Yukihiro / ユキヒロ マツシタ
Сценарий: Takayama Katsuhiko / 高山カツヒコ
Автор оригинала: Hashimoto Tsumugu / 橋本紡
Композитор: Mitsumune Shinkichi / 光宗信吉
Сейю: Kenichi Suzumura; Mikako Takahashi; Nobuyuki Kobushi; Yuki Kodaira; Akira Sasanuma; Hiroaki Hirata; Matsuoka Yuki; Yada Kouji; Nagano Yoshikazu;

Качество: DVDRip
Формат: AVI
Видео кодек: DivX
Аудио кодек: MP3
Видео: DivX 5 704x396 29.97fps
Аудио 1: MP3 44100Hz stereo 192kbps [Russian]
Аудио 2: MP3 44100Hz stereo 192kbps [Japanese]
Субтитры: ASS, русские внешние (Nodanoshi & Сейа)
GeneralFormat : AVIFormat/Info : Audio Video InterleaveFormat profile : OpenDMLFormat settings : recFile size : 423 MiBDuration : 24 min 46 sOverall bit rate : 2 386 kb/sMovie name : Akiko-san, the Girl and Akutagawa RyuunosukeWriting application : AVI-Mux GUI 1.17.7, Aug 8 2006 20:59:17

VideoID : 0Format : MPEG-4 VisualFormat profile : Advanced Simple@L5Format settings, BVOP : 2Format settings, QPel : NoFormat settings, GMC : No warppointsFormat settings, Matrix : Default (H.263)Codec ID : DX50Codec ID/Hint : DivX 5Duration : 24 min 46 sBit rate : 1 997 kb/sWidth : 704 pixelsHeight : 396 pixelsDisplay aspect ratio : 16:9Frame rate : 29.970 (30000/1001) FPSColor space : YUVChroma subsampling : 4:2:0Bit depth : 8 bitsScan type : ProgressiveCompression mode : LossyBits/(Pixel*Frame) : 0.239Stream size : 354 MiB (84%)Title : VideoWriting library : XviD 1.1.2 (UTC 2006-11-01)

Audio #1ID : 1Format : MPEG AudioFormat version : Version 1Format profile : Layer 3Mode : Joint stereoCodec ID : 55Codec ID/Hint : MP3Duration : 24 min 46 sBit rate mode : ConstantBit rate : 192 kb/sChannel(s) : 2 channelsSampling rate : 44.1 kHzCompression mode : LossyStream size : 34.0 MiB (8%)Alignment : Aligned on interleavesInterleave, duration : 390 ms (11.69 video frames)Interleave, preload duration : 209 msTitle : Russian

Audio #2ID : 2Format : MPEG AudioFormat version : Version 1Format profile : Layer 3Mode : Joint stereoCodec ID : 55Codec ID/Hint : MP3Duration : 24 min 46 sBit rate mode : ConstantBit rate : 192 kb/sChannel(s) : 2 channelsSampling rate : 44.1 kHzCompression mode : LossyStream size : 34.0 MiB (8%)Alignment : Aligned on interleavesInterleave, duration : 390 ms (11.69 video frames)Interleave, preload duration : 209 msTitle : Japanese
Альтернативные раздачи

Трекер:  [ 10-Сен-2017 15:01 ]

  

Скачать .torrent

Размер .torrent файла 13 KB


Размер: 2.47 GB
Хэш (hash) релиза: b18948c2132152f99441b4d23664aa95445b0f25
Подписка на обновления:

Торренты, похожие на Глядя на полумесяц Looking up at the Half-Moon скачать торрент

Форум Название Автор Размер S L Добавлен
Аниме | Rips ·· Глядя на полумесяц / Hanbun no Tsuki ga Noboru Sora / Looking up at the Half-Moon (Мацусита Юкихиро) [OVA] [6 из 6] [без хардсаба] [RUS(ext),JAP+SUB] [2006 г., драма, романтика, DVDRip] Galfimbul 34311936283.2 GB 0 0 1469867444

11:30

30-Июл-16

Еще никто не оставлял запись к записи скачать торрент Глядя на полумесяц Looking up at the Half-Moon . Будь первым!

!Обратная связь