Скачать через торрент Люблю тебя любую Серии: 1-2 из 2 Фильм бесплатно в хорошем качестве torrent

Скачивайте на UnionPeer.org фильмы через торрент без регистрации. Новинки кино в хорошем качестве через торрент. На UnionPeer.org можно скачать через торрент фильмы 2014 и 2015 годов. Самые новые фильмы.

Скачать торрент Люблю тебя любую Серии: 1-2 из 2 бесплатно через .torrent фильм мультфильм сериал

Если у вас наблюдаются проблемы со скриншотами, переходом по ссылками, скачиванием торрентов - проблемы в блокировщике рекламы AdBlock. #хорошегоДня!


Статистика раздачи
Размер:  2.66 GB   |    Зарегистрирован:  11 дней   |    .torrent скачан:  30 раз   |   
Раздают:  1  
   
Загрузка...
 
Автор Сообщение

Galfimbul

avatar Galfimbul


Люблю тебя любую

Год выпуска: 2017
Производство: ООО "Кинокомпания Гамма"
Жанр: мелодрама
Продолжительность: ~00:45:00 серия
Субтитры: нет

Режиссёр: Юрий Купавых

В ролях: Юлия Галкина, Константин Стрельников, Дарья Егорова, Вахтанг Беридзе, Александр Никольский, Ольга Крылова, Виктория Герасимова, Сергей Фатьянов, Антон Аносов, Руслана Рухадзе, Вера Смолина, Светлана Брыксина, Роберт Елкибаев, Сергей Ушаков, Виталий Олейниченко, Владимир Воробьёв

Описание: Сёстры, Наталья и Лариса, любительницы спорить. В одном из споров ставкой становится половина магазина, принадлежащего обеим сестрам. А предметом спора - убежденность Натальи в своем умении "выдрессировать" любого мужчину. Мужчиной, который должен пригласить Наталью замуж, по воле Ларисы становится обыкновенный дворник Николай. Лариса точно знает, что сестра ненавидит Николая с первого взгляда...

Реклама: Нет.

Кинопоиск

Sample

Качество: WEBRip 1080p
Формат: MKV
Видео кодек: H.264
Аудио кодек: AC3
Видео: MPEG4 AVC Video, H264, 16:9, 1920x1080, 25 fps, ~3900 kbps, 0.075 bit/pixel
Аудио: AC3 Dolby Digital, 44,1 kHz, 2/0 (L,R) ch, 192 kbps
General
Unique ID : 204502573246566269391711950608616867849 (0x99D9C350D22D18A0ADBC1C3432174809)
Complete name : K:\Люблю тебя любую 2017\01.Liubliu.tebia.liubliu.2017.WEB-DL.1080.Files-x.mkv
Format : Matroska
Format version : Version 4 / Version 2
File size : 1.35 GiB
Duration : 46mn 5s
Overall bit rate : 4 188 Kbps
Writing application : Lavf56.25.101
Writing library : Lavf56.25.101

Video
ID : 1
Format : AVC
Format/Info : Advanced Video Codec
Format profile : High@L4.0
Format settings, CABAC : Yes
Format settings, ReFrames : 3 frames
Codec ID : V_MPEG4/ISO/AVC
Duration : 46mn 6s
Bit rate : 3 913 Kbps
Width : 1 920 pixels
Height : 1 080 pixels
Display aspect ratio : 16:9
Frame rate mode : Constant
Frame rate : 25.000 fps
Color space : YUV
Chroma subsampling : 4:2:0
Bit depth : 8 bits
Scan type : Progressive
Bits/(Pixel*Frame) : 0.075
Stream size : 1.26 GiB (93%)
Default : Yes
Forced : No

Audio
ID : 2
Format : AC-3
Format/Info : Audio Coding 3
Mode extension : CM (complete main)
Format settings, Endianness : Big
Codec ID : A_AC3
Duration : 46mn 5s
Bit rate mode : Constant
Bit rate : 192 Kbps
Channel count : 2 channels
Channel positions : Front: L R
Sampling rate : 44.1 KHz
Bit depth : 16 bits
Compression mode : Lossy
Stream size : 63.3 MiB (5%)
Default : Yes
Forced : No


Трекер:  [ 10-Сен-2017 14:48 ]

  

Скачать .torrent

Размер .torrent файла 14 KB


Размер: 2.66 GB
Хэш (hash) релиза: fa09dae794c2e7bad443f92f20f5411a3f770855
Подписка на обновления:

Торренты, похожие на Люблю тебя любую Серии: 1-2 из 2 скачать торрент

Форум Название Автор Размер S L Добавлен
Российские сериалы ·· Люблю тебя любую / Серии: 1-2 из 2 (Юрий Купавых) [2017, Мелодрама, WEBRip] Galfimbul 12585144321.17 GB 2 0 1504981511

21:25

9-Сен-17

Еще никто не оставлял запись к записи скачать торрент Люблю тебя любую Серии: 1-2 из 2 . Будь первым!

!Обратная связь