It Comes at Night torrent

, , - AdBlock. #!


1020 MB   |    :  2 13    |    .torrent :  14    |   
1  
   
...
 

Galfimbul

avatar Galfimbul


/ It Comes at Night
-

6.080 / 10 7.00 / 10
: 2017
:
: , ,
: 01:31:36

: (iTunes)
:
C: ,
:
:
: , , .
:
:
: , ,
: ,
: , , , , , , , , , Β

: $5 000 000
: $13 898 397
: + $5 295 814 = $19 194 211
: $397 627

: 29 2017
(): 24 2017,

: , . . , . . , ?.. : BDRemux
: BDRip
: SD (480p)
: M4V
: H.264, 640x356 852356, 2.40:1, 1 300 Kbps, 23.976 (24000/1001) fps

1: / (iTunes), AAC / 2.0 / 128 Kbps / 48.0 KHz
2: / , AAC / 2.0 / 128 Kbps / 48.0 KHz

1:
2:
Sort Name: It Comes At Night
XID: Apple:vendor_id:2017-998552
contentID: 1243275284
Copyright: 2017 A24 Distribution, LLC
Screenwriters:
Producers: , , .
Director:
Cast: , , , , , , , , , Β, , , , ,
Studio: A24
Rating: 5
Long Description: , . . , . . , ?..
Description: , . . , . . , ?..
Release Date: 2017-04-29T08:00:00Z
Genre: Thriller
Artist: Trey Edward Shults
Name: It Comes At Night
General
Complete name : /Users/imac/HandBrake/It.Comes.at.Night.(480p).(pk).m4v
Format : MPEG-4
Codec ID : M4V (M4V /M4A /mp42/isom)
File size : 1 020 MiB
Duration : 1h 31mn
Overall bit rate mode : Variable
Overall bit rate : 1 557 Kbps
Movie name : It Comes At Night
Performer : Trey Edward Shults
Director :
Actor : / / / / / / / / / Β / / / / /
Screenplay by :
Producer : / / .
Production studio : A24
Genre : Thriller
ContentType : Short Film
Description : , . . , . . , ?..
Recorded date : UTC 2017-04-29 08:00:00
Encoded date : UTC 2017-09-10 10:36:47
Tagged date : UTC 2017-09-10 10:44:24
Copyright : 2017 A24 Distribution, LLC
Cover : Yes
Rating : None
Title/Sort : It Comes At Night
LongDescription : , . . , . . , ?..
AppleStoreCatalogID : 1243275284
Vendor : Apple:vendor_id:2017-998552
ContentRating : mpaa|R|400|

Video #1
ID : 1
Format : AVC
Format/Info : Advanced Video Codec
Format profile : Baseline@L3
Format settings, CABAC : No
Format settings, ReFrames : 2 frames
Codec ID : avc1
Codec ID/Info : Advanced Video Coding
Duration : 1h 31mn
Bit rate : 1 300 Kbps
Width : 640 pixels
Height : 356 pixels
Display aspect ratio : 2.40:1
Frame rate mode : Variable
Frame rate : 23.976 (23976/1000) fps
Minimum frame rate : 13.158 fps
Maximum frame rate : 23.981 fps
Color space : YUV
Chroma subsampling : 4:2:0
Bit depth : 8 bits
Scan type : Progressive
Bits/(Pixel*Frame) : 0.238
Stream size : 851 MiB (83%)
Title : Main Program
Writing library : x264 core 148 r2708 86b7198
Encoding settings : cabac=0 / ref=2 / deblock=1:0:0 / analyse=0x1:0x111 / me=umh / subme=6 / psy=1 / psy_rd=1.00:0.00 / mixed_ref=1 / me_range=16 / chroma_me=1 / trellis=0 / 8x8dct=0 / cqm=0 / deadzone=21,11 / fast_pskip=1 / chroma_qp_offset=-2 / threads=11 / lookahead_threads=1 / sliced_threads=0 / nr=0 / decimate=1 / interlaced=0 / bluray_compat=0 / constrained_intra=0 / bframes=0 / weightp=0 / keyint=240 / keyint_min=24 / scenecut=40 / intra_refresh=0 / rc_lookahead=40 / rc=2pass / mbtree=1 / bitrate=1300 / ratetol=1.0 / qcomp=0.60 / qpmin=0 / qpmax=69 / qpstep=4 / cplxblur=20.0 / qblur=0.5 / vbv_maxrate=5000 / vbv_bufsize=5000 / nal_hrd=none / filler=0 / ip_ratio=1.40 / aq=1:1.00
Language : English
Encoded date : UTC 2017-09-10 10:36:47
Tagged date : UTC 2017-09-10 10:36:50
Color range : Limited
Color primaries : BT.709
Transfer characteristics : BT.709
Matrix coefficients : BT.709
Menus : 6,7

Video #2
ID : 7
Format : JPEG
Codec ID : jpeg
Duration : 1h 31mn
Bit rate mode : Variable
Bit rate : 640 bps
Width : 640 pixels
Height : 267 pixels
Display aspect ratio : 2.40:1
Frame rate mode : Variable
Frame rate : 0.003 fps
Minimum frame rate : 0.002 fps
Maximum frame rate : 0.005 fps
Color space : YUV
Chroma subsampling : 4:2:0
Bit depth : 8 bits
Compression mode : Lossy
Bits/(Pixel*Frame) : 1.248
Stream size : 417 KiB (0%)
Title : Chapter Images
Language : English
Default : No
Encoded date : UTC 2017-09-10 10:37:03
Tagged date : UTC 2017-09-10 10:37:03
Menu For : 1

Audio #1
ID : 2
Format : AAC
Format/Info : Advanced Audio Codec
Format profile : LC
Codec ID : 40
Duration : 1h 31mn
Bit rate mode : Variable
Bit rate : 126 Kbps
Maximum bit rate : 183 Kbps
Channel(s) : 2 channels
Channel positions : Front: L R
Sampling rate : 48.0 KHz
Frame rate : 46.875 fps (1024 SPF)
Compression mode : Lossy
Stream size : 82.3 MiB (8%)
Title : Russian Stereo
Language : Russian
Default : Yes
Alternate group : 1
Encoded date : UTC 2017-09-10 10:36:47
Tagged date : UTC 2017-09-10 10:36:59

Audio #2
ID : 3
Format : AAC
Format/Info : Advanced Audio Codec
Format profile : LC
Codec ID : 40
Duration : 1h 31mn
Bit rate mode : Variable
Bit rate : 125 Kbps
Maximum bit rate : 191 Kbps
Channel(s) : 2 channels
Channel positions : Front: L R
Sampling rate : 48.0 KHz
Frame rate : 46.875 fps (1024 SPF)
Compression mode : Lossy
Stream size : 81.6 MiB (8%)
Title : English Stereo
Language : English
Default : No
Alternate group : 1
Encoded date : UTC 2017-09-10 10:36:47
Tagged date : UTC 2017-09-10 10:36:59

Text #1
ID : 4
Format : Timed Text
Muxing mode : sbtl
Codec ID : tx3g
Duration : 1h 27mn
Bit rate mode : Variable
Bit rate : 67 bps
Stream size : 42.6 KiB (0%)
Title : Russian full
Language : Russian
Default : Yes
Forced : No
Alternate group : 2
Encoded date : UTC 2017-09-10 10:36:47
Tagged date : UTC 2017-09-10 10:36:59

Text #2
ID : 5
Format : Timed Text
Muxing mode : sbtl
Codec ID : tx3g
Duration : 1h 26mn
Bit rate mode : Variable
Bit rate : 41 bps
Stream size : 26.1 KiB (0%)
Title : English full
Language : English
Default : No
Forced : No
Alternate group : 2
Encoded date : UTC 2017-09-10 10:36:47
Tagged date : UTC 2017-09-10 10:36:59

Menu #1
00:00:00.000 : Chapter 1
00:05:09.226 : Chapter 2
00:11:16.180 : Chapter 3
00:16:20.357 : Chapter 4
00:24:44.402 : Chapter 5
00:28:20.326 : Chapter 6
00:35:04.521 : Chapter 7
00:42:06.798 : Chapter 8
00:47:58.891 : Chapter 9
00:51:25.347 : Chapter 10
00:56:15.887 : Chapter 11
01:01:22.736 : Chapter 12
01:07:28.144 : Chapter 13
01:13:37.764 : Chapter 14
01:20:18.164 : Chapter 15
01:26:26.782 : Chapter 16

Menu #2
ID : 6
Codec ID : text
Duration : 1h 31mn
Language : English
Encoded date : UTC 2017-09-10 10:36:59
Tagged date : UTC 2017-09-10 10:36:59
Menu For : 1
00:00:00.000 : Chapter 1
00:05:09.226 : Chapter 2
00:11:16.180 : Chapter 3
00:16:20.357 : Chapter 4
00:24:44.402 : Chapter 5
00:28:20.326 : Chapter 6
00:35:04.521 : Chapter 7
00:42:06.798 : Chapter 8
00:47:58.891 : Chapter 9
00:51:25.347 : Chapter 10
00:56:15.887 : Chapter 11
01:01:22.736 : Chapter 12
01:07:28.144 : Chapter 13
01:13:37.764 : Chapter 14
01:20:18.164 : Chapter 15
01:26:26.782 : Chapter 16
Bit rate mode : VBR
x264 [info]: frame I:5608 Avg QP:14.10 size: 13766
x264 [info]: frame P:126177 Avg QP:16.99 size: 6463
x264 [info]: mb I I16..4: 32.0% 0.0% 68.0%
x264 [info]: mb P I16..4: 0.4% 0.0% 2.0% P16..4: 49.3% 26.2% 9.6% 0.0% 0.0% skip:12.6%
x264 [info]: coded y,uvDC,uvAC intra: 74.9% 43.5% 29.0% inter: 26.8% 14.4% 3.2%
x264 [info]: i16 v,h,dc,p: 41% 18% 24% 16%
x264 [info]: i4 v,h,dc,ddl,ddr,vr,hd,vl,hu: 37% 12% 20% 6% 6% 6% 5% 5% 3%
x264 [info]: i8c dc,h,v,p: 70% 9% 17% 4%
x264 [info]: ref P L0: 65.0% 35.0%
x264 [info]: kb/s:1299.21
Apple TV, iPad, iPhone, iPod Touch.
Windows VLC media player

 ·  , , FAQ-
:  [ 10--2017 14:12 ]

  

.torrent

.torrent 40 KB


: 1020 MB
(hash) : b3537ad8eb605d3950a870e66bd75c9dffbdd376
··
...

It Comes at Night . !

!