Скачать через торрент National Geographic: Правила счёта Фильм бесплатно в хорошем качестве torrent

Скачивайте на UnionPeer.org фильмы через торрент без регистрации. Новинки кино в хорошем качестве через торрент. На UnionPeer.org можно скачать через торрент фильмы 2014 и 2015 годов. Самые новые фильмы.

Скачать торрент National Geographic: Правила счёта бесплатно через .torrent фильм мультфильм сериал

Если у вас наблюдаются проблемы со скриншотами, переходом по ссылками, скачиванием торрентов - проблемы в блокировщике рекламы AdBlock. #хорошегоДня!


Статистика раздачи
Размер:  1.47 GB   |    Зарегистрирован:  2 месяца 13 дней   |    .torrent скачан:  10 раз   |   
Раздают:  1  
   
Загрузка...
 
Автор Сообщение

Galfimbul

avatar Galfimbul


Правила счёта / The Numbers Game

Год выпуска: 2013
Страна: США
Студия: Produced by National Geographic Television for National Geographic Channels
Жанр: Документальный, популярная статистика
Продолжительность: 00:44:56
Перевод: Студийный (одноголосый закадровый)
Режиссер: Майкл Ракер / Michael Rucker

Описание: Деньги, пол, брак, создание семьи, смертность. В каждом эпизоде ученый-исследователь Джейк Порвей решает одну из самых сложных тем жизни, раскрывающих удивительную науку, стоящую за ними. Из увлекательной статистики, на уличных экспериментах и интерактивной игры это шоу дает ответы на загадки жизни и дает вам инструменты, которые помогут взять на себя ответственность за вашу судьбу и изменить вашу жизнь навсегда.

IMDb

Сэмпл: https://www.sendspace.com/file/kfpeo4

Тип релиза: HDTVRip 720p
Контейнер: MKV

Видео: 1280x720 (16:9), 25 fps, AVC (x264), High@L4.1, 4500 kbps, 25fps, 0.195 bit/pixel
Аудио: Русский 48 kHz, AC3 Dolby Digital, 2/0 (L,R) ch, ~192.00 kbps avg
GeneralUnique ID : 217905623384083429176642468209076533759 (0xA3EF18B50C5B7B748860C5EABF5CF9FF)Complete name : F:\Наладки\Правила счета\Правила счёта_ когда Вы умрёте_720p.mkvFormat : MatroskaFormat version : Version 4 / Version 2File size : 1.47 GiBDuration : 44 min 56 sOverall bit rate : 4 693 kb/sEncoded date : UTC 2017-09-10 09:02:33Writing application : mkvmerge v6.6.0 ('The Edge Of The In Between') built on Dec 1 2013 17:55:00Writing library : libebml v1.3.0 + libmatroska v1.4.1

VideoID : 1Format : AVCFormat/Info : Advanced Video CodecFormat profile : High@L4.1Format settings, CABAC : YesFormat settings, RefFrames : 9 framesCodec ID : V_MPEG4/ISO/AVCDuration : 44 min 56 sBit rate : 4 500 kb/sWidth : 1 280 pixelsHeight : 720 pixelsDisplay aspect ratio : 16:9Frame rate mode : ConstantFrame rate : 25.000 FPSColor space : YUVChroma subsampling : 4:2:0Bit depth : 8 bitsScan type : ProgressiveBits/(Pixel*Frame) : 0.195Stream size : 1.38 GiB (94%)Writing library : x264 core 148 r2744 b97ae06Encoding settings : cabac=1 / ref=9 / deblock=1:-3:-3 / analyse=0x3:0x133 / me=umh / subme=9 / psy=1 / psy_rd=1.00:0.00 / mixed_ref=1 / me_range=32 / chroma_me=1 / trellis=2 / 8x8dct=1 / cqm=0 / deadzone=21,11 / fast_pskip=1 / chroma_qp_offset=-2 / threads=12 / lookahead_threads=2 / sliced_threads=0 / nr=0 / decimate=0 / interlaced=0 / bluray_compat=0 / constrained_intra=0 / bframes=9 / b_pyramid=2 / b_adapt=2 / b_bias=0 / direct=3 / weightb=1 / open_gop=0 / weightp=2 / keyint=250 / keyint_min=25 / scenecut=40 / intra_refresh=0 / rc_lookahead=50 / rc=2pass / mbtree=1 / bitrate=4500 / ratetol=1.0 / qcomp=0.60 / qpmin=0 / qpmax=69 / qpstep=4 / cplxblur=20.0 / qblur=0.5 / ip_ratio=1.40 / aq=1:1.00Language : EnglishDefault : YesForced : No

AudioID : 2Format : AC-3Format/Info : Audio Coding 3Format settings, Endianness : BigCodec ID : A_AC3Duration : 44 min 56 sBit rate mode : ConstantBit rate : 192 kb/sChannel(s) : 2 channelsChannel positions : Front: L RSampling rate : 48.0 kHzFrame rate : 31.250 FPS (1536 SPF)Bit depth : 16 bitsCompression mode : LossyStream size : 61.7 MiB (4%)Language : RussianService kind : Complete MainDefault : YesForced : No
1. When Will You Die? / Когда Вы умрёте?
Что бы вы о себе не думали, в действительности существуют факторы, которые неизбежно и стремительно приближают вас к последнему дню жизни. Узнайте, как изменить своё поведение и поводить смерть за нос.
2. Will You Make a Million? / Как Вам заработать миллион
Было бы потрясающе стать миллионером мгновенно - выиграть в лотерею или получить наследство. Но каковы шансы, что это случится? Может быть есть другие способы стать богатым и властным?
3. What Drives You Crazy? / Что делает вас сумасшедшим?
Ученый Джейк Порвей проводит нас через то, что заставляет нас потерять рассудок и что мы можем сделать, чтобы контролировать себя, когда это происходит.
Раздача ведётся путём добавления новых серий; при каждом добавлении создаётся новый торрент. Чтобы начать докачку новой серии, пользователям необходимо сделать следующее:

- Остановить скачивание.
- Удалить старый торрент у себя из клиента (старые серии удалять не надо).
- Скачать новый торрент и запустить его у себя в клиенте вместо старого, при этом указать клиенту путь в старую папку куда и должно происходить скачивание новых серий.


Трекер:  [ 10-Сен-2017 13:12 ]

  

Скачать .torrent

Размер .torrent файла 15 KB


Размер: 1.47 GB
Хэш (hash) релиза: bab6c6ebfc442477d6f8a6b0c29da756506e81b0
Подписка на обновления:

Еще никто не оставлял запись к записи скачать торрент National Geographic: Правила счёта . Будь первым!

!Обратная связь