Скачать через торрент Фаберже: Особый путь в истории Faberge: A Life of Its Own Фильм бесплатно в хорошем качестве torrent

Скачивайте на UnionPeer.org фильмы через торрент без регистрации. Новинки кино в хорошем качестве через торрент. На UnionPeer.org можно скачать через торрент фильмы 2014 и 2015 годов. Самые новые фильмы.

Скачать торрент Фаберже: Особый путь в истории Faberge: A Life of Its Own бесплатно через .torrent фильм мультфильм сериал

Если у вас наблюдаются проблемы со скриншотами, переходом по ссылками, скачиванием торрентов - проблемы в блокировщике рекламы AdBlock. #хорошегоДня!


Статистика раздачи
Размер:  5.13 GB   |    Зарегистрирован:  2 месяца 13 дней   |    .torrent скачан:  10 раз   |   
Раздают:  1  
   
Загрузка...
 
Автор Сообщение

Galfimbul

avatar Galfimbul


Фаберже: Особый путь в истории / Faberge: A Life of Its Own

Страна: Великобритания, США, Швейцария, Россия, Монако, Германия, Франция
Студия: Mark Stewart Productions
Жанр: Документальный, исторический
Год выпуска: 2014
Продолжительность: 01:20:28
Перевод: Профессиональный (многоголосый закадровый) - Первый канал
Русские субтитры: нет
Оригинальная аудиодорожка: нет

Режиссёр: Патрик Марк / Patrick Mark

Телеканал: Первый HD
Описание: Фильм рассказывает об истории семьи Фаберже от царской России до наших дней. Сто пятьдесят лет, полных потрясений, романтики, художественных достижений и коммерческих успехов. Производя самые разные продукты, от бесценных пасхальных яиц, изготовленных для Романовых, до доступных ароматов 70-х Brut by Fabergé, эта марка смогла сохранить авторитет в современном мире моды. Фильм рассказывает о том, как устроена эта сложная империя, созданная одним человеком, гениальным Карлом Фаберже, придворным ювелиром из Санкт-Петербурга. Съемки проходили в России, Европе и США. Фильм рассказывает о жизни фирмы, члены семьи Фаберже делятся своими воспоминаниями.

Доп. информация:
Автор релиза -
Источник - HDTV 1080i TS - моя запись с канала Первый HD
Локализованный видеоряд - все надписи и подписи на русском языке!
Фильм подготовлен к показу и озвучен телекомпанией Первый канал

Сэмпл: https://yadi.sk/i/Sj0Tkyzq3MkjUq

Рекламы нет!

Качество видео: HDTV 1080i
Формат видео: TS

Видео: MPEG-4 AVC, 1920x1080 (16:9), 25.000 fps, 8087 kbps, 0.156 bit/pixel
Аудио 1: Русский MP2, 48000 Гц, 2ch, 192 kbps
Аудио 2: Русский АС3, 48000 Гц, 2ch, 384 kbps
ОбщееИдентификатор : 1 (0x1)Полное имя : D:\Faberge.A.Life.of.Its.Own.2014.HDTV.1080i-ylnian.tsФормат : MPEG-TSРазмер файла : 5,13 ГбайтПродолжительность : 1 ч. 20 м.Режим общего битрейта : ПеременныйОбщий поток : 9119 Кбит/сек

ВидеоИдентификатор : 205 (0xCD)Идентификатор меню : 20105 (0x4E89)Формат : AVCФормат/Информация : Advanced Video CodecПрофиль формата : High@L4Параметр CABAC формата : ДаПараметр ReFrames формата : 4 кадраПараметр GOP формата : M=4, N=28Идентификатор кодека : 27Продолжительность : 1 ч. 20 м.Битрейт : 8087 Кбит/секШирина : 1920 пикселейВысота : 1080 пикселейСоотношение сторон : 16:9Частота кадров : 25,000 кадров/секСтандарт вещания : ComponentЦветовое пространство : YUVСубдискретизация насыщенности : 4:2:0Битовая глубина : 8 битТип развёртки : ЧересстрочнаяМетод сохранения типа развёртки : Раздельные поляПорядок развёртки : Верхнее поле первоеБит/(Пиксели*Кадры) : 0.156Размер потока : 4,55 Гбайт (89%)Цветовой диапазон : LimitedОсновные цвета : BT.709Характеристики трансфера : BT.709Коэффициенты матрицы : BT.709

Аудио #1Идентификатор : 305 (0x131)Идентификатор меню : 20105 (0x4E89)Формат : MPEG AudioВерсия формата : Version 1Профиль формата : Layer 2Идентификатор кодека : 3Продолжительность : 1 ч. 20 м.Вид битрейта : ПостоянныйБитрейт : 192 Кбит/секКаналы : 2 каналаЧастота : 48,0 КГцМетод сжатия : С потерямиРазмер потока : 111 Мбайт (2%)Язык : Russian

Аудио #2Идентификатор : 405 (0x195)Идентификатор меню : 20105 (0x4E89)Формат : AC-3Формат/Информация : Audio Coding 3Параметр Endianness формата : BigИдентификатор кодека : 6Продолжительность : 1 ч. 20 м.Вид битрейта : ПостоянныйБитрейт : 384 Кбит/секКаналы : 6 каналовРасположение каналов : Front: L C R, Side: L R, LFEЧастота : 48,0 КГцЧастота кадров : 31,250 кадров/сек (1536 spf)Битовая глубина : 16 битМетод сжатия : С потерямиРазмер потока : 221 Мбайт (4%)Язык : RussianServiceKind/String : Complete Main


Трекер:  [ 10-Сен-2017 12:12 ]

  

Скачать .torrent

Размер .torrent файла 26 KB


Размер: 5.13 GB
Хэш (hash) релиза: e0ef58008d52fab9ae3e9057089367fdb9639a4e
Подписка на обновления:

Еще никто не оставлял запись к записи скачать торрент Фаберже: Особый путь в истории Faberge: A Life of Its Own . Будь первым!

!Обратная связь