Скачать через торрент Девушки Ниндзя Senran Kagura бесплатно Аниме Все серии на русском torrent

Если у вас наблюдаются проблемы со скриншотами, переходом по ссылками, скачиванием торрентов - проблемы в блокировщике рекламы AdBlock. #хорошегоДня!


Статистика раздачи
Размер:  83.23 GB   |    Зарегистрирован:  2 месяца 10 дней   |    .torrent скачан:  13 раз   |   
Раздают:  1  
   
Загрузка...
 
Автор Сообщение

Galfimbul

avatar Galfimbul


Девушки Ниндзя / Senran Kagura

Год выпуска: 2013
Страна: Япония
Жанр: комедия, этти
Тип: TV
Продолжительность: 12 эп. по 24 мин., 6 спешалов по 3 мин.
Озвучка:

Одноголосая (жен) от Persona99 (GetSmart)
Одноголосая (муж) от Inspector Gadjet (AniDub)
Одноголосая (муж) от ZaRT (Animedia)

Русские субтитры: есть (отдельным файлом, формат .ass)
Перевод:

Gerale

Хардсаб: НетРежиссер: Ватанабэ Такаси
Студия: Artland

Описание: Знатокам известно, что ниндзюцу не умерло в эпоху Токугава, а ушло в тень, распустив слухи о своей кончине. Теперь ниндзя служат правительству и самым могущественным людям, а готовят их под прикрытием обычных школ – токийская академия Хандзо одна из них. Там по специальной программе под руководством Кирия-сэнсэя учатся пять девушек, которым суждено стать новым поколением синоби: простоватая Асука, манерная Икаруга, раскованная Кацураги, одноглазая Ягю и милашка Хибари. Асука только что прошла очередной экзамен и, чтобы отметить событие, сэнсэй отправляет учениц на вроде бы несложную миссию в торговом районе…

Тут и выяснилось, что девушек-ниндзя в Японии много, и не все они одержимы идеалами добра, справедливости и госслужбы. Неведомые противницы во главе со смуглянкой Хомурой даже не напрягались, а так, слегка проверили умения оппоненток, оставив тех в полном замешательстве. Впрочем, ученицы Хандзо вскоре успокоились, собрались с силами и принялись за дело всерьез. Вот теперь битва закипит не на шутку, а ради чего – какая разница?! Будем болеть за наших, ведь у них у всех как минимум четвертый размер!
© Hollow, World Art

Качество: Blu-Ray Remux
Формат: MKV
Видео кодек: AVC
Аудио кодек: FLAC
Видео: 1920x1080 (16:9) 23,976 fps ~36,6 Mbps 8bit
Аудио:
Jap FLAC, 48000Hz, ~807 Kbps, 2ch
RUS 1-3 (ext) AC3, 48000Hz, ~192 Kbps, 2ch

Субтитры и озвучка взяты из этой раздачи.
Чаптеры присутствуют.
01. Ниндзя на небоскрёбе
02. Появление легендарного шиноби
03. Непрошеный гость в лунном свете
04. Тренировки на берегу - остров Ниндзя
05. Внезапная атака! Академия Ханзо
06. Связанный барьер шиноби
07. Ужасы пешей прогулки
08. Воспоминания класса шиноби
09. Женская секретная академия Змея
10. Инь и Янь
11. Столкновение в замке
12. Сверхсекретное искусство ниндзя
Общее
Уникальный идентификатор : 211525403362173058195679632273006643785 (0x9F224F92C6C091E6A8CF3BCB20DFCA49)
Полное имя : Z:\Anime Release - working\Kagura\[anti-raws]Senran Kagura ep.01[BDRemux].mkv
Формат : Matroska
Версия формата : Version 4 / Version 2
Размер файла : 6,34 Гбайт
Продолжительность : 23 м. 41 с.
Режим общего битрейта : Переменный
Общий поток : 38,3 Мбит/сек
Дата кодирования : UTC 2017-09-05 22:03:05
Программа кодирования : mkvmerge v15.0.0 ('Duel with the Devil') 64-bit
Библиотека кодирования : libebml v1.3.5 + libmatroska v1.4.5

Видео
Идентификатор : 2
Формат : AVC
Формат/Информация : Advanced Video Codec
Профиль формата : High@L4.1
Параметр CABAC формата : Да
Параметр ReFrames формата : 2 кадра
Идентификатор кодека : V_MPEG4/ISO/AVC
Продолжительность : 23 м. 41 с.
Вид битрейта : Переменный
Битрейт : 37,5 Мбит/сек
Ширина : 1920 пикселей
Высота : 1080 пикселей
Соотношение сторон : 16:9
Режим частоты кадров : Постоянный
Частота кадров : 23,976 (24000/1001) кадра/сек
Цветовое пространство : YUV
Субдискретизация насыщенности : 4:2:0
Битовая глубина : 8 бит
Тип развёртки : Прогрессивная
Бит/(Пиксели*Кадры) : 0.754
Размер потока : 6,20 Гбайт (98%)
Default : Нет
Forced : Нет

Аудио
Идентификатор : 1
Формат : FLAC
Формат/Информация : Free Lossless Audio Codec
Идентификатор кодека : A_FLAC
Продолжительность : 23 м. 41 с.
Вид битрейта : Переменный
Битрейт : 807 Кбит/сек
Каналы : 2 канала
Расположение каналов : Front: L R
Частота : 48,0 КГц
Частота кадров : 11,719 кадров/сек (4096 spf)
Битовая глубина : 16 бит
Размер потока : 137 Мбайт (2%)
Библиотека кодирования : libFLAC 1.2.1 (UTC 2007-09-17)
Язык : Japanese
Default : Да
Forced : Нет

Меню
00:00:00.000 : en:00:00:00.000
00:02:07.002 : en:00:02:07.002
00:03:37.008 : en:00:03:37.008
00:12:56.943 : en:00:12:56.943
00:21:54.939 : en:00:21:54.939
00:23:24.945 : en:00:23:24.945
...4390405
...4310004
--HDTVRip

...4468932
...4466357
--BDRip

Эта раздача - BDRemux


Трекер:  [ 10-Сен-2017 12:01 ]

  

Скачать .torrent

Размер .torrent файла 111 KB


Размер: 83.23 GB
Хэш (hash) релиза: b5d87e1dc2dbfc20f5d25b2f54bb3166a2040d17
Подписка на обновления:

Торренты, похожие на Девушки Ниндзя Senran Kagura скачать торрент

Форум Название Автор Размер S L Добавлен
Аниме | HD Rips ·· Девушки Ниндзя / Senran Kagura / Сенран Кагура [TV] [12 из 12] [Без хардсаба] [JAP, SUB] [2013 г., Приключения, Комедия, Этти, HDTVRip] [720p] Polarnik 45463569404.23 GB 0 0 1364286914

11:35

26-Мар-13

Аниме | HD Rips ·· Сенран Кагура / Девушки Ниндзя / Senran Kagura (Ватанабэ Такаси) [TV+Special] [без хардсаба] [12+6 из 12+6] [JAP+SUB] & [12+0 из 12+6] [RUS(ext)] [2013 г., комедия, этти, BDRip] [1080p] Polarnik 2598306122024.2 GB 0 0 1384115839

23:37

10-Ноя-13

Аниме | HD Rips ·· Сенран Кагура / Девушки Ниндзя / Senran Kagura (Ватанабэ Такаси) [TV+Special] [без хардсаба] [12+6 из 12+6] [JAP+SUB] & [12+0 из 12+6] [RUS(ext)] [2013 г., комедия, этти, BDRip] [720p] Polarnik 1095314764310.2 GB 0 0 1382884578

17:36

27-Окт-13

Аниме | HD Rips ·· Сенран Кагура / Девушки Ниндзя / Senran Kagura (Ватанабэ Такаси) [TV+Special] [без хардсаба] [12+5 из 12+6] [JAP+SUB] & [8+0 из 12+6] [RUS(ext)] [2013 г., комедия, этти, BDRip] [1080p] Polarnik 2537613166223.63 GB 0 0 1379883512

23:58

22-Сен-13

Аниме | HD Rips ·· Сенран Кагура / Девушки Ниндзя / Senran Kagura (Ватанабэ Такаси) [TV+Special] [без хардсаба] [12+5 из 12+6] [JAP+SUB] & [12+0 из 12+6] [RUS(ext)] [2013 г., комедия, этти, BDRip] [720p] Polarnik 104526785139.73 GB 0 0 1379817874

05:44

22-Сен-13

Аниме | HD Rips ·· Сенран Кагура / Девушки Ниндзя / Senran Kagura (Ватанабэ Такаси) [TV+Special] [без хардсаба] [8+3 из 12+6] [JAP+SUB] & [8+0 из 12+6] [RUS(ext)] [2013 г., комедия, этти, BDRip] [1080p] Polarnik 1693782489115.77 GB 0 0 1374849181

17:33

26-Июл-13

Аниме | HD Rips ·· Сенран Кагура / Девушки Ниндзя / Senran Kagura (Ватанабэ Такаси) [TV+Special] [без хардсаба] [8+3 из 12+6] [JAP+SUB] & [8+0 из 12+6] [RUS(ext)] [2013 г., комедия, этти, BDRip] [720p] Polarnik 68863048106.41 GB 0 0 1374244569

17:36

19-Июл-13

Аниме | HD Rips ·· Сенран Кагура / Девушки Ниндзя / Senran Kagura (Ватанабэ Такаси) [TV] [4 из 12] [без хардсаба] [RUS(ext), JAP+SUB] [2013 г., комедия, этти, BDRip] [1080p] Polarnik 74641073626.95 GB 0 0 1372473087

05:31

29-Июн-13

Аниме | HD Rips ·· Сенран Кагура / Девушки Ниндзя / Senran Kagura (Ватанабэ Такаси) [TV] [4 из 12] [без хардсаба] [RUS(ext), JAP+SUB] [2013 г., комедия, этти, BDRip] [720p] Polarnik 30205395852.81 GB 0 0 1371373336

12:02

16-Июн-13

Аниме | Rips ·· Сенран Кагура / Senran Kagura / Девушки Ниндзя [TV] [01- 03 из >12] [Без хардсаба] [RUS(int), JAP, SUB] [2013 г., комедия, этти, HDTVRip] [HWP] Galfimbul 912104152870 MB 0 0 1359188340

11:19

26-Янв-13

Еще никто не оставлял запись к записи скачать торрент Девушки Ниндзя Senran Kagura . Будь первым!

!Обратная связь