Скачать через торрент Преступление не будет раскрыто Фильм бесплатно в хорошем качестве torrent

Скачивайте на UnionPeer.org фильмы через торрент без регистрации. Новинки кино в хорошем качестве через торрент. На UnionPeer.org можно скачать через торрент фильмы 2014 и 2015 годов. Самые новые фильмы.

Скачать торрент Преступление не будет раскрыто бесплатно через .torrent фильм мультфильм сериал

Если у вас наблюдаются проблемы со скриншотами, переходом по ссылками, скачиванием торрентов - проблемы в блокировщике рекламы AdBlock. #хорошегоДня!


Статистика раздачи
Размер:  1.46 GB   |    Зарегистрирован:  2 месяца 15 дней   |    .torrent скачан:  12 раз   |   
Раздают:  1  
   
Загрузка...
 
Автор Сообщение

Galfimbul

avatar Galfimbul


Преступление не будет раскрыто

Жанр: драма, мелодрама, криминал
Год выпуска: 1992
Продолжительность: 01:05:13

Режиссёр: Валентина Переверзева

В ролях: Алексей Волков
Марина Опенкина
Владислав Демченко
Геннадий Сайфулин
Валерий Беляев
Екатерина Гольтянина
Елена Борзунова
Антон Голышев
Валентина Титова
Вадим Захарченко

Описание: Обычная история — любовный треугольник. Здесь любят, ненавидят, ревнуют, душат, травят друг друга… Однако следователь ведет дело так, чтобы преступление не было раскрыто…

Доп. информация: Оцифровал фильм с VHS и лично передал для релиза на трекере NorZanzibar

Релиз

Сэмпл: https://yadi.sk/i/BJrsPpf13MkiWW

Качество видео: VHSRip
Формат видео: AVI

Видео: 720x544 (1.32:1), 25 fps, XviD MPEG-4 ~3065 kbps avg, 0.31 bit/pixel
Аудио: 48 kHz, MPEG Layer 3, 2 ch, ~128.00 kbps avg
Преступление не будет раскрыто [by NorZanzibar].avi
Format : AVI
Format/Info : Audio Video Interleave
File size : 1.46 GiB
Duration : 1 h 5 min
Overall bit rate : 3 200 kb/s
Movie name : 1992 - Преступление не будет раскрыто
Director : by NorZanzibar
Writing application : VirtualDubMod 1.5.4.1 (build 2178/release)
Copyright : Edich2
Comment : RuTracker.org

Video
ID : 0
Format : MPEG-4 Visual
Format profile : Advanced Simple@L5
Format settings, BVOP : 1
Format settings, QPel : No
Format settings, GMC : No warppoints
Format settings, Matrix : Custom
Codec ID : XVID
Codec ID/Hint : XviD
Duration : 1 h 5 min
Bit rate : 3 065 kb/s
Width : 720 pixels
Height : 544 pixels
Display aspect ratio : 4:3
Frame rate : 25.000 FPS
Color space : YUV
Chroma subsampling : 4:2:0
Bit depth : 8 bits
Scan type : Progressive
Compression mode : Lossy
Bits/(Pixel*Frame) : 0.313
Stream size : 1.40 GiB (96%)
Writing library : XviD 73

Audio
ID : 1
Format : MPEG Audio
Format version : Version 1
Format profile : Layer 3
Mode : Joint stereo
Codec ID : 55
Codec ID/Hint : MP3
Duration : 1 h 5 min
Bit rate mode : Constant
Bit rate : 128 kb/s
Channel(s) : 2 channels
Sampling rate : 48.0 kHz
Compression mode : Lossy
Stream size : 59.7 MiB (4%)
Alignment : Aligned on interleaves
Interleave, duration : 80 ms (2.00 video frames)
Interleave, preload duratio : 504 ms
Writing library : LAME3.97
Encoding settings : -m j -V 4 -q 2 -lowpass 17 -b 128


Трекер:  [ 10-Сен-2017 11:54 ]

  

Скачать .torrent

Размер .torrent файла 15 KB


Размер: 1.46 GB
Хэш (hash) релиза: fdbc6479caedc24fb4cda9b4f779958ce8d876ca
Подписка на обновления:

Еще никто не оставлял запись к записи скачать торрент Преступление не будет раскрыто . Будь первым!

!Обратная связь