Скачать через торрент Фабрика звёзд 6. 2 первых отчётных концерта Фильм бесплатно в хорошем качестве torrent

Скачивайте на UnionPeer.org фильмы через торрент без регистрации. Новинки кино в хорошем качестве через торрент. На UnionPeer.org можно скачать через торрент фильмы 2014 и 2015 годов. Самые новые фильмы.

Скачать торрент Фабрика звёзд 6. 2 первых отчётных концерта бесплатно через .torrent фильм мультфильм сериал

Если у вас наблюдаются проблемы со скриншотами, переходом по ссылками, скачиванием торрентов - проблемы в блокировщике рекламы AdBlock. #хорошегоДня!


Статистика раздачи
Размер:  2.13 GB   |    Зарегистрирован:  2 месяца 11 дней   |    .torrent скачан:  3 раза   |   
Раздают:  1  
   
Загрузка...
 
Автор Сообщение

Galfimbul

avatar Galfimbul


Фабрика звёзд 6. 2 первых отчётных концерта

Дата/Год выпуска: 2006
Страна: Россия
Жанр: ТВ-шоу
Продолжительность: 02:26:48
Перевод: Не требуется
Русские субтитры: нет

Режиссер: Юрий Аксюта

Телеканал: Первый
Описание: Программа "Фабрика звезд" начала свое пятое звездное шествие на телеэкране. Восемнадцать участников будут бороться за место на нашем музыкальном олимпе. Каждую пятницу в 21.30 на Первом канале реальное шоу с реальными звездами.

Доп. информация: Записано в режиме LP, так что качество не идеальное.

качество: VHSRip
формат: AVI
Видео: Xvid 576x432 (4:3) 25fps 1895kbps
Аудио: MP3 48000Hz stereo 192kbps
1 и 2 отчетные концерты.
GeneralComplete name : D:\скачано\Фабрика Звезд\Фабрика звёзд 6\2 отчетный концерт.aviFormat : AVIFormat/Info : Audio Video InterleaveFile size : 1.23 GiBDuration : 1h 23mnOverall bit rate : 2 097 KbpsWriting library : VirtualDub build 32842/release

VideoID : 0Format : MPEG-4 VisualFormat profile : Advanced Simple@L5Format settings, BVOP : 2Format settings, QPel : NoFormat settings, GMC : No warppointsFormat settings, Matrix : Default (H.263)Muxing mode : Packed bitstreamCodec ID : XVIDCodec ID/Hint : XviDDuration : 1h 23mnBit rate : 1 896 KbpsWidth : 576 pixelsHeight : 432 pixelsDisplay aspect ratio : 4:3Frame rate : 25.000 fpsColor space : YUVChroma subsampling : 4:2:0Bit depth : 8 bitsScan type : ProgressiveCompression mode : LossyBits/(Pixel*Frame) : 0.305Stream size : 1.11 GiB (90%)Writing library : XviD 64

AudioID : 1Format : MPEG AudioFormat version : Version 1Format profile : Layer 3Mode : Joint stereoMode extension : MS StereoCodec ID : 55Codec ID/Hint : MP3Duration : 1h 23mnBit rate mode : ConstantBit rate : 192 KbpsChannel(s) : 2 channelsSampling rate : 48.0 KHzCompression mode : LossyStream size : 115 MiB (9%)Alignment : Split accross interleavesInterleave, duration : 40 ms (1.00 video frame)Interleave, preload duration : 500 ms


Трекер:  [ 10-Сен-2017 11:42 ]

  

Скачать .torrent

Размер .torrent файла 11 KB


Размер: 2.13 GB
Хэш (hash) релиза: 3af541f5528d95fcc57d30db68a0e8eaeab52913
Подписка на обновления:

Торренты, похожие на Фабрика звёзд 6. 2 первых отчётных концерта скачать торрент

Форум Название Автор Размер S L Добавлен
Развлекательные телепередачи и шоу ·· Фабрика звёзд 6 - Открытие и 2 первых отчётных концерта [2006 г., Видео-концерт, TVRip] Galfimbul 18462517141.72 GB 0 0 1452458874

23:47

10-Янв-16

Еще никто не оставлял запись к записи скачать торрент Фабрика звёзд 6. 2 первых отчётных концерта . Будь первым!

!Обратная связь