Скачать через торрент Про жену, мечту и еще одну... Фильм бесплатно в хорошем качестве torrent

Скачивайте на UnionPeer.org фильмы через торрент без регистрации. Новинки кино в хорошем качестве через торрент. На UnionPeer.org можно скачать через торрент фильмы 2014 и 2015 годов. Самые новые фильмы.

Скачать торрент Про жену, мечту и еще одну... бесплатно через .torrent фильм мультфильм сериал

Если у вас наблюдаются проблемы со скриншотами, переходом по ссылками, скачиванием торрентов - проблемы в блокировщике рекламы AdBlock. #хорошегоДня!


Статистика раздачи
Размер:  1.23 GB   |    Зарегистрирован:  11 дней   |    .torrent скачан:  10 раз   |   
Раздают:  1  
   
Загрузка...
 
Автор Сообщение

Galfimbul

avatar Galfimbul


Про жену, мечту и еще одну... (Александр Поженский)

Жанр: драма, мелодрама, комедия
Год выпуска: 2013
Продолжительность: 01:12:00

Режиссёр: Александр Поженский

В ролях: Константин Юшкевич, Александра Куликова

Описание: Ироническая история в двух частях с элементами сверхъестественного.

Краткое содержание:
Свидание. Мария и Васин не подозревают, что в параллельном мире у них есть другая жизнь. Чудесная жизнь, где удачно сложилось то, чего им вроде бы не хватает сегодня…

Доп. информация: Cценарий и постановка: Александр Поженский

Памятные даты:
Кинопремьера в РФ: 16.10.2013 («35мм»)
Кинопрокат в РФ: 16.10-27.11.2013 («Другое кино»)
Онлайн премьера: 03.12.2013 (21kin.com)
Релиз на YouTube: 01.01.2014
Премьера на ТВ: 16.08.2014 («Наше новое кино» НТВ+)

Фестивали:
IV-й кинофестиваль «Другое кино» (Москва)
X-й кинофестиваль «Лучезарный ангел» (Москва)
V-й кинофестиваль «Киноликбез» (Барнаул)
XXII-й кинофестиваль «Фестиваль фестивалей» (С-Петербург)
XV-й телекинофорум «Вместе» (Ялта)
VI-я Национальная Премия «Страна» (Москва)



Сэмпл: http://sendfile.su/1360369

Качество видео: HDRip
Формат видео: MP4

Видео: Кодек: H264 - MPEG-4 AVC (part 10) (avc1),1920х834, 2202 Кбит/сек
Аудио: русский, MPEG AAC Audio (mp4a), 48000 Гц, 256 Кбит/сек, стерео
Общее
Полное имя : D:\kino\P1\torrents\AWDA_FHD.mp4
Формат : MPEG-4
Профиль формата : Base Media / Version 2
Идентификатор кодека : mp42 (mp42/mp41/isom/avc1)
Размер файла : 1,23 Гбайт
Продолжительность : 1 ч. 11 м.
Режим общего битрейта : Переменный
Общий поток : 2462 Кбит/сек
Дата кодирования : UTC 2013-12-03 17:22:32
Дата пометки : UTC 2013-12-03 17:22:32

Видео
Идентификатор : 1
Формат : AVC
Формат/Информация : Advanced Video Codec
Профиль формата : Main@L4
Параметр CABAC формата : Да
Параметр RefFrames формата : 4 кадра
Идентификатор кодека : avc1
Идентификатор кодека/Информация : Advanced Video Coding
Продолжительность : 1 ч. 11 м.
Битрейт : 2202 Кбит/сек
Ширина : 1920 пикселей
Высота : 810 пикселей
Соотношение сторон : 2,40:1
Режим частоты кадров : Постоянный
Частота кадров : 25,000 кадров/сек
Цветовое пространство : YUV
Субдискретизация насыщенности : 4:2:0
Битовая глубина : 8 бит
Тип развёртки : Прогрессивная
Бит/(Пиксели*Кадры) : 0.057
Размер потока : 1,10 Гбайт (89%)
Библиотека кодирования : x264 core 138 r2358 9e941d1
Настройки программы : cabac=1 / ref=1 / deblock=1:0:0 / analyse=0x1:0 / me=dia / subme=2 / psy=1 / psy_rd=1.00:0.00 / mixed_ref=0 / me_range=16 / chroma_me=1 / trellis=0 / 8x8dct=0 / cqm=0 / deadzone=21,11 / fast_pskip=1 / chroma_qp_offset=0 / threads=12 / lookahead_threads=4 / sliced_threads=0 / nr=0 / decimate=1 / interlaced=0 / bluray_compat=0 / stitchable=1 / constrained_intra=0 / bframes=3 / b_pyramid=2 / b_adapt=1 / b_bias=0 / direct=1 / weightb=1 / open_gop=0 / weightp=2 / keyint=75 / keyint_min=25 / scenecut=40 / intra_refresh=0 / rc_lookahead=40 / rc=crf / mbtree=1 / crf=20.0 / qcomp=0.60 / qpmin=5 / qpmax=69 / qpstep=4 / vbv_maxrate=6750 / vbv_bufsize=22500 / crf_max=0.0 / nal_hrd=none / ip_ratio=1.40 / aq=1:1.00
Дата кодирования : UTC 2013-12-03 17:22:32
Дата пометки : UTC 2013-12-03 17:22:32

Аудио
Идентификатор : 2
Формат : AAC
Формат/Информация : Advanced Audio Codec
Профиль формата : LC
Идентификатор кодека : 40
Продолжительность : 1 ч. 11 м.
Вид битрейта : Переменный
Битрейт : 256 Кбит/сек
Каналы : 2 канала
Расположение каналов : Front: L R
Частота : 48,0 КГц
Частота кадров : 46,875 кадров/сек (1024 SPF)
Метод сжатия : С потерями
Размер потока : 131 Мбайт (10%)
Дата кодирования : UTC 2013-12-03 17:22:32
Дата пометки : UTC 2013-12-03 17:22:32


Трекер:  [ 10-Сен-2017 09:24 ]

  

Скачать .torrent

Размер .torrent файла 12 KB


Размер: 1.23 GB
Хэш (hash) релиза: 1640c5d183cf99716a831a9764e6de08906b398c
Подписка на обновления:

Еще никто не оставлял запись к записи скачать торрент Про жену, мечту и еще одну... . Будь первым!

!Обратная связь