Скачать через торрент Дон Кихот Фильм бесплатно в хорошем качестве torrent

Скачивайте на UnionPeer.org фильмы через торрент без регистрации. Новинки кино в хорошем качестве через торрент. На UnionPeer.org можно скачать через торрент фильмы 2014 и 2015 годов. Самые новые фильмы.

Скачать торрент Дон Кихот бесплатно через .torrent фильм мультфильм сериал

Если у вас наблюдаются проблемы со скриншотами, переходом по ссылками, скачиванием торрентов - проблемы в блокировщике рекламы AdBlock. #хорошегоДня!


Статистика раздачи
Размер:  1.46 GB   |    Зарегистрирован:  11 дней   |    .torrent скачан:  5 раз   |   
Раздают:  2  
   
Загрузка...
 
Автор Сообщение

Galfimbul

avatar Galfimbul


Дон Кихот

Жанр: драма
Год выпуска: 1957
Продолжительность: 01:41:32

Режиссёр: Григорий Козинцев

В ролях: Николай Черкасов, Юрий Толубеев, Людмила Касьянова, Серафима Бирман, Светлана Григорьева, Василий Максимов, Виктор Колпаков, Тамилла Агамирова, Георгий Вицин, Бруно Фрейндлих, Лидия Вертинская, Галина Волчек, Ольга Викландт, Александр Бениаминов, С. Цомаев
Описание: Экранизация одноименной пьесы Е.Шварца по мотивам романа Мигеля де Сервантеса Сааведры о забавных и трогательных приключениях идальго Алонсо Кехано, влюбленного в рыцарские романы и решившего самому сделаться рыцарем и отправиться в поход, хотя времена рыцарства давно миновали...
Первый цветной широкоэкранный стереозвуковой фильм киностудии "Ленфильм".

Качество видео: DVDRip
Формат видео: AVI

Видео: 704x304 (2.32:1), 25 fps, XviD build 73 ~1594 kbps avg, 0.30 bit/pixel
Аудио: 48 kHz, AC3 Dolby Digital, 3/2 (L,C,R,l,r) + LFE ch, ~448 kbps

General
Complete name : H:\Дон.Кихот.1967.dvdrip_[1.46]_[teko].avi
Format : AVI
Format/Info : Audio Video Interleave
File size : 1.46 GiB
Duration : 1h 41mn
Overall bit rate : 2 053 Kbps
Writing application : VirtualDubMod 1.5.10.3 | www.virtualdub-fr.org || (build 2550/release)
Writing library : VirtualDubMod build 2550/release

Video
ID : 0
Format : MPEG-4 Visual
Format profile : Advanced Simple@L5
Format settings, BVOP : 2
Format settings, QPel : No
Format settings, GMC : No warppoints
Format settings, Matrix : Custom
Codec ID : XVID
Codec ID/Hint : XviD
Duration : 1h 41mn
Bit rate : 1 595 Kbps
Width : 704 pixels
Height : 304 pixels
Display aspect ratio : 2.35:1
Frame rate : 25.000 fps
Color space : YUV
Chroma subsampling : 4:2:0
Bit depth : 8 bits
Scan type : Progressive
Compression mode : Lossy
Bits/(Pixel*Frame) : 0.298
Stream size : 1.13 GiB (78%)
Writing library : XviD 73

Audio
ID : 1
Format : AC-3
Format/Info : Audio Coding 3
Mode extension : CM (complete main)
Format settings, Endianness : Big
Codec ID : 2000
Duration : 1h 41mn
Bit rate mode : Constant
Bit rate : 448 Kbps
Channel(s) : 6 channels
Channel positions : Front: L C R, Side: L R, LFE
Sampling rate : 48.0 KHz
Frame rate : 31.250 fps (1536 spf)
Compression mode : Lossy
Delay relative to video : 500ms
Stream size : 325 MiB (22%)
Alignment : Split accross interleaves
Interleave, duration : 40 ms (1.00 video frame)
Interleave, preload duratio : 500 ms
Релиз группы:



Трекер:  [ 10-Сен-2017 07:24 ]

  

Скачать .torrent

Размер .torrent файла 15 KB


Размер: 1.46 GB
Хэш (hash) релиза: fb23fc2e5f4b3703f68bf80e2084a165fc41fb80
Подписка на обновления:

Торренты, похожие на Дон Кихот скачать торрент

Форум Название Автор Размер S L Добавлен
Документальные фильмы и телепередачи ·· В Поисках Дон Кихота. 1-8 серии (Валерий Спирин) [2017, Путешествия, документальный, HDTVRip] Galfimbul 57684459525.37 GB 0 0 1484437233

02:40

15-Янв-17

Документальные фильмы и телепередачи ·· В Поисках Дон Кихота. 1-8 серии (Валерий Спирин) [2017, Путешествия, документальный, HDTV 1080i] Galfimbul 2922206820427.22 GB 0 0 1484384892

12:08

14-Янв-17

Документальные фильмы и телепередачи ·· В Поисках Дон Кихота: Проект Владимира Познера и Ивана Урганта / Серии: 1-8 (из 8) (Валерий Спирин) [2017, Документальный, HDTVRip-AVC] Galfimbul 48758612484.54 GB 0 0 1484375988

09:39

14-Янв-17

Документальные фильмы и телепередачи ·· В Поисках Дон Кихота: Проект Владимира Познера и Ивана Урганта / Серии: 1-8 (из 8) (Валерий Спирин) [2017, Документальный, HDTVRip 720p] Galfimbul 1207406229711.24 GB 0 0 1484375629

09:33

14-Янв-17

Документальные фильмы и телепередачи ·· В Поисках Дон Кихота: Проект Владимира Познера и Ивана Урганта / Серии: 1-7 (из 8) (Валерий Спирин) [2017, Документальный, HDTVRip 720p] Galfimbul 105598606619.83 GB 0 0 1484226046

16:00

12-Янв-17

Документальные фильмы и телепередачи ·· В Поисках Дон Кихота. 1-7 серии (Валерий Спирин) [2017, Путешествия, документальный, HDTV 1080i] Galfimbul 2563621110023.88 GB 0 0 1484200695

08:58

12-Янв-17

Документальные фильмы и телепередачи ·· В Поисках Дон Кихота. 1-6 серии (Валерий Спирин) [2017, Путешествия, документальный, HDTV 1080i] Galfimbul 2173674273620.24 GB 0 0 1484123367

11:29

11-Янв-17

Документальные фильмы и телепередачи ·· В Поисках Дон Кихота: Проект Владимира Познера и Ивана Урганта / Серии: 1-6 (из 8) (Валерий Спирин) [2017, Документальный, HDTVRip 720p] Galfimbul 90456715198.42 GB 0 0 1484112631

08:30

11-Янв-17

Документальные фильмы и телепередачи ·· В Поисках Дон Кихота: Проект Владимира Познера и Ивана Урганта / Серии: 1-5 (из 8) (Валерий Спирин) [2017, Документальный, HDTVRip 720p] Galfimbul 75385503287.02 GB 0 0 1484042312

12:58

10-Янв-17

Документальные фильмы и телепередачи ·· В Поисках Дон Кихота. 1-5 серии (Валерий Спирин) [2017, Путешествия, документальный, HDTV 1080i] Galfimbul 1830328031217.05 GB 0 0 1484002765

01:59

10-Янв-17

Документальные фильмы и телепередачи ·· В Поисках Дон Кихота: Проект Владимира Познера и Ивана Урганта / Серии: 1-4 (из 8) (Валерий Спирин) [2017, Документальный, HDTVRip 720p] Galfimbul 60257705095.61 GB 0 0 1483862586

11:03

8-Янв-17

Документальные фильмы и телепередачи ·· В Поисках Дон Кихота. 1-4 серии (Валерий Спирин) [2017, Путешествия, документальный, HDTV 1080i] Galfimbul 1477146098813.76 GB 0 0 1483826684

01:04

8-Янв-17

Документальные фильмы и телепередачи ·· В Поисках Дон Кихота (Валерий Спирин) [2017, Путешествия, документальный, HDTV 1080i] Galfimbul 1151220613210.72 GB 0 0 1483797204

16:53

7-Янв-17

Документальные фильмы и телепередачи ·· В Поисках Дон Кихота: Проект Владимира Познера и Ивана Урганта / Серии: 1-3 (из 8) (Валерий Спирин) [2017, Документальный, HDTVRip-AVC] Galfimbul 18217771591.7 GB 0 0 1483700181

13:56

6-Янв-17

Документальные фильмы и телепередачи ·· В Поисках Дон Кихота: Проект Владимира Познера и Ивана Урганта / Серии: 1-3 (из 8) (Валерий Спирин) [2017, Документальный, HDTVRip 720p] Galfimbul 45114408734.2 GB 0 0 1483680610

08:30

6-Янв-17

Документальные фильмы и телепередачи ·· В Поисках Дон Кихота: Проект Владимира Познера и Ивана Урганта / Серии: 1-2 (из 8) (Валерий Спирин) [2017, Документальный, HDTVRip 720p] Galfimbul 29886716502.78 GB 0 0 1483623679

16:41

5-Янв-17

Мультфильмы до 2016 ·· Дон Кихот / Donkey Xote (Хосе Посо / Jose Pozo) [2007, мультфильм, семейный, BDRip] Dub Galfimbul 15600476161.45 GB 0 0 1430624804

06:46

3-Май-15

Мультфильмы до 2016 ·· Дон Кихот / Donkey Xote (Хосе Позо / Jose Poso) [2007, Италия, Испания, Комедия, приключения, мультфильм, Blu-ray Disc (Custom) 1080i] Dub + MVO + Sub Rus, Spa + Original Spa Galfimbul 2084302003719.41 GB 0 0 1425726620

14:10

7-Мар-15

Документальные фильмы и телепередачи ·· Владимир Зельдин: Страсти Дон Кихота (Татьяна Лебяжьева) [2015, Документальный, HDTV 720p] Galfimbul 17161071591.6 GB 0 0 1423652584

14:03

11-Фев-15

Еще никто не оставлял запись к записи скачать торрент Дон Кихот . Будь первым!

!Обратная связь