Скачать через торрент Чего на свете не бывает Чаго на свеце не здараецца Фильм бесплатно в хорошем качестве torrent

Скачивайте на UnionPeer.org фильмы через торрент без регистрации. Новинки кино в хорошем качестве через торрент. На UnionPeer.org можно скачать через торрент фильмы 2014 и 2015 годов. Самые новые фильмы.

Скачать торрент Чего на свете не бывает Чаго на свеце не здараецца бесплатно через .torrent фильм мультфильм сериал

Если у вас наблюдаются проблемы со скриншотами, переходом по ссылками, скачиванием торрентов - проблемы в блокировщике рекламы AdBlock. #хорошегоДня!


Статистика раздачи
Размер:  68 MB   |    Зарегистрирован:  2 месяца 15 дней   |    .torrent скачан:  6 раз   |   
Раздают:  1  
   
Загрузка...
 
Автор Сообщение

Galfimbul

avatar Galfimbul


Чего на свете не бывает / Чаго на свеце не здараецца

Страна: Беларусь
Жанр: мультфильм
Продолжительность: 00:09:18
Год выпуска: 1997
Перевод: субтитры (alex.n42)
Русские субтитры: есть

Режиссёр: Александр Ленкин

Описание: Сказка про хитрого богача, который любые небылицы называл правдой. А однажды забавы ради объявил, что если кто-то расскажет ему такую небыль, чтоб он сказал "Враньё", то даст он тому золота и свою дочь в жёны. Тут и нашёлся один сказочник неравнодушный к этой дочери...

Качество: WEBRip
Формат: AVI
Видео: 884 kbps, 608х480 (5:4), 25.000 fps, MPEG-4 Visual (XviD)
Аудио: 128 kbps, 44.1 kHz, 2 channels, MPEG Audio (MP3)
Субтитры: softsub (SRT)
GeneralComplete name : Чаго на свеце не здараецца (1997).aviFormat : AVIFormat/Info : Audio Video InterleaveFile size : 68.0 MiBDuration : 9mn 18sOverall bit rate : 1 022 KbpsWriting library : VirtualDub build 35491/release

VideoID : 0Format : MPEG-4 VisualFormat profile : Advanced Simple@L4Format settings, BVOP : 2Format settings, QPel : NoFormat settings, GMC : No warppointsFormat settings, Matrix : Default (H.263)Codec ID : XVIDCodec ID/Hint : XviDDuration : 9mn 18sBit rate : 884 KbpsWidth : 608 pixelsHeight : 480 pixelsDisplay aspect ratio : 5:4Frame rate : 25.000 fpsColor space : YUVChroma subsampling : 4:2:0Bit depth : 8 bitsScan type : ProgressiveCompression mode : LossyBits/(Pixel*Frame) : 0.121Stream size : 58.8 MiB (87%)Writing library : XviD 64

AudioID : 1Format : MPEG AudioFormat version : Version 1Format profile : Layer 3Mode : Joint stereoMode extension : MS StereoCodec ID : 55Codec ID/Hint : MP3Duration : 9mn 18sBit rate mode : ConstantBit rate : 128 KbpsChannel(s) : 2 channelsSampling rate : 44.1 KHzCompression mode : LossyStream size : 8.50 MiB (13%)Alignment : Split accross interleavesInterleave, duration : 40 ms (1.00 video frame)Interleave, preload duration : 501 ms
1
00:00:17,260 --> 00:00:22,500
ЧЕГО НА СВЕТЕ НЕ БЫВАЕТ

2
00:02:11,170 --> 00:02:12,910
Чего на свете не случается!

3
00:02:14,500 --> 00:02:15,690
Не случается…

4
00:02:16,340 --> 00:02:17,160
А про это слышали?

5
00:02:24,700 --> 00:02:26,600
Жил как-то раз один человек.

6
00:02:27,510 --> 00:02:28,740
Богатый человек.

7
00:02:29,410 --> 00:02:34,510
Бывало, кто ему что не наплетёт –
он всё правдой признает.

8
00:02:35,780 --> 00:02:37,910
И однажды объявил по всему свету:

9
00:02:39,360 --> 00:02:41,400
"Кто меня уговорит,
чтоб сказал я: "Враньё!",

10
00:02:43,170 --> 00:02:44,450
дам тому золота…

11
00:02:44,800 --> 00:02:46,640
и дочку Алёну в жёны".

12
00:02:47,710 --> 00:02:50,490
Нашёлся один-таки сказочник
с нашей деревни,

13
00:02:51,730 --> 00:02:52,860
пришёл к нему.

14
00:02:53,470 --> 00:02:57,060
"Ставь тарелку золота
и дочку на лавку сади. Уговорю!"

15
00:03:02,600 --> 00:03:03,640
Ну, рассказывай.


Трекер:  [ 10-Сен-2017 04:36 ]

  

Скачать .torrent

Размер .torrent файла 11 KB


Размер: 68 MB
Хэш (hash) релиза: fe4cd14bdc08a5e5ba437d67d6144094745d0bc9
Подписка на обновления:

Еще никто не оставлял запись к записи скачать торрент Чего на свете не бывает Чаго на свеце не здараецца . Будь первым!

!Обратная связь