Скачать через торрент Крым древний Фильм бесплатно в хорошем качестве torrent

Скачивайте на UnionPeer.org фильмы через торрент без регистрации. Новинки кино в хорошем качестве через торрент. На UnionPeer.org можно скачать через торрент фильмы 2014 и 2015 годов. Самые новые фильмы.

Скачать торрент Крым древний бесплатно через .torrent фильм мультфильм сериал

Если у вас наблюдаются проблемы со скриншотами, переходом по ссылками, скачиванием торрентов - проблемы в блокировщике рекламы AdBlock. #хорошегоДня!


Статистика раздачи
Размер:  700 MB   |    Зарегистрирован:  9 дней   |    .torrent скачан:  7 раз   |   
Раздают:  1  
   
Загрузка...
 
Автор Сообщение

Galfimbul

avatar Galfimbul


Крым древний

Год выпуска: 2004
Страна: Украина
Жанр: документальный
Продолжительность: 56:40
Перевод: не требуется
Русские субтитры: нет

Описание:
Фильм рассказывает об исторических достопримечательностях Крыма:
- Античные городища (Херсонес, Пантикапей)
- Царский курган (Керчь)
- Пещерные города (Мангуп-Кале, Эски-Кермен)
- Пещерные монастыри (Качи-Кальон, Успенский, св. Климента)
- Ханский дворец и другие...

Качество: DVDRip
Формат: AVI
Видео: DivX, 720x528 (1.36:1), 25 fps, 1526 kbps
Аудио: AC3, 48 kHz, 192 kbps, 2/0 (L,R) ch
Общее
Полное имя : Krym.drevnij.Rus.DVDRip.by.gera.avi
Формат : AVI
Формат/Информация : Audio Video Interleave
Размер файла : 700 Мбайт
Продолжительность : 56 м.
Общий поток : 1726 Кбит/сек
Жанр : Documentary
Программа кодирования : Nandub v1.0rc2
Формат оригинала/Имя : Movie
Примечание : DVDRip by gera

Видео
Идентификатор : 0
Формат : MPEG-4 Visual
Параметр BVOP формата : 3
Параметр QPel формата : Нет
Параметр GMC формата : Без точки перехода
Параметр матрицы формата : Default (MPEG)
Режим смешивания : Сжатый битовый поток
Идентификатор кодека : DX50
Идентификатор кодека/Подсказка : DivX 5
Продолжительность : 56 м.
Битрейт : 1526 Кбит/сек
Ширина : 720 пикселей
Высота : 528 пикселей
Соотношение сторон : 4:3
Частота кадров : 25,000 кадров/сек
Цветовое пространство : YUV
Субдискретизация насыщенности : 4:2:0
Битовая глубина : 8 бит
Тип развёртки : Чересстрочная
Порядок развёртки : Нижнее поле первое
Метод сжатия : С потерями
Бит/(Пиксели*Кадры) : 0.161
Размер потока : 619 Мбайт (88%)
Библиотека кодирования : DivX 6.8.0 (UTC 2007-12-04)

Аудио
Идентификатор : 1
Формат : AC-3
Формат/Информация : Audio Coding 3
Расширение режима : CM (complete main)
Параметр Endianness формата : Big
Идентификатор кодека : 2000
Продолжительность : 56 м.
Вид битрейта : Постоянный
Битрейт : 192 Кбит/сек
Каналы : 2 канала
Расположение каналов : Front: L R
Частота : 48,0 КГц
Битовая глубина : 16 бит
Метод сжатия : С потерями
Размер потока : 77,8 Мбайт (11%)
Выравнивание : Соединение по промежуткам
Продолжительность промежутка : 64 мс. (1,60 видеокадра)
Время предзагрузки промежутка : 64 мс.
Скриншоты:


З.Ы Рип с этого DVD

<img class="smile" src="//static.t-ru.org/smiles/icon_exclaim.gif" alt=""> Внимание! Торрент-файл перезалит 09.09.2017 без изменения содержимого раздачи в связи с просьбой администрации снять флаг «приватная раздача». Скачавшим ранее просьба перекачать торрент-файл, перехешировать содержимое и присоединиться к раздаче.

Трекер:  [ 09-Сен-2017 22:12 ]

  

Скачать .torrent

Размер .torrent файла 14 KB


Размер: 700 MB
Хэш (hash) релиза: 59860bc121bad05839eeb4bb7555bfae23789cbc
Подписка на обновления:

Еще никто не оставлял запись к записи скачать торрент Крым древний . Будь первым!

!Обратная связь