Скачать через торрент Люблю тебя любую Серии: 1-2 из 2 Фильм бесплатно в хорошем качестве torrent

Скачивайте на UnionPeer.org фильмы через торрент без регистрации. Новинки кино в хорошем качестве через торрент. На UnionPeer.org можно скачать через торрент фильмы 2014 и 2015 годов. Самые новые фильмы.

Скачать торрент Люблю тебя любую Серии: 1-2 из 2 бесплатно через .torrent фильм мультфильм сериал

Если у вас наблюдаются проблемы со скриншотами, переходом по ссылками, скачиванием торрентов - проблемы в блокировщике рекламы AdBlock. #хорошегоДня!


Статистика раздачи
Размер:  1.17 GB   |    Зарегистрирован:  12 дней   |    .torrent скачан:  39 раз   |   
Раздают:  2  
   
Загрузка...
 
Автор Сообщение

Galfimbul

avatar Galfimbul


Люблю тебя любую
Год выпуска: 2017
Производство: ООО "Кинокомпания Гамма"
Жанр: Мелодрама
Продолжительность: 00:45:00
Субтитры: нет

Режиссёр: Юрий Купавых

В ролях: Юлия Галкина, Константин Стрельников, Дарья Егорова, Вахтанг Беридзе, Александр Никольский (II), Ольга Крылова (II), Виктория Герасимова, Сергей Фатьянов, Антон Аносов, Руслана Рухадзе, Вера Смолина, Светлана Брыксина, Роберт Елкибаев, Сергей Ушаков (II), Виталий Олейниченко, Владимир Воробьёв

Описание: Сёстры, Наталья и Лариса, любительницы спорить. В одном из споров ставкой становится половина магазина, принадлежащего обеим сестрам. А предметом спора - убежденность Натальи в своем умении "выдрессировать" любого мужчину. Мужчиной, который должен пригласить Наталью замуж, по воле Ларисы становится обыкновенный дворник Николай. Лариса точно знает, что сестра ненавидит Николая с первого взгляда... / СэмплРелиз группа: Качество: WEBRip
Формат: AVI
Видео кодек: XviD
Аудио кодек: AC3
Видео: 720x400 (16:9), 25.000 fps, XviD build 73, 1619 Kbps, 0.22 Bits/Pixel
Аудио: 48 kHz, AC3 Dolby Digital, 2 ch, 192 Kbps

Реклама: Нет
General
Complete name : Downloads\Liubliu.tebia.liubliu.2017.WEB-DLRip.Files-x
Format : AVI
Format/Info : Audio Video Interleave
File size : 601 MiB
Duration : 46mn 6s
Overall bit rate : 1 821 Kbps
Writing application : VirtualDubMod 1.5.10.3 | www.virtualdub-fr.org || (build 2550/release)
Writing library : VirtualDubMod build 2550/release
Video #0
ID : 0
Format : MPEG-4 Visual
Format profile : Advanced Simple@L5
Format settings, BVOP : 1
Format settings, QPel : No
Format settings, GMC : No warppoints
Format settings, Matrix : Custom
Codec ID : XVID
Codec ID/Hint : XviD
Duration : 46mn 6s
Bit rate : 1 619 Kbps
Width : 720 pixels
Height : 400 pixels
Display aspect ratio : 16:9
Frame rate : 25.000 fps
Color space : YUV
Chroma subsampling : 4:2:0
Bit depth : 8 bits
Scan type : Progressive
Compression mode : Lossy
Bits/(Pixel*Frame) : 0.225
Stream size : 534 MiB (89%)
Writing library : XviD 73
Audio #1
ID : 1
Format : AC-3
Format/Info : Audio Coding 3
Mode extension : CM (complete main)
Format settings, Endianness : Big
Codec ID : 2000
Duration : 46mn 6s
Bit rate mode : Constant
Bit rate : 192 Kbps
Channel(s) : 2 channels
Channel positions : Front: L R
Sampling rate : 48.0 KHz
Bit depth : 16 bits
Compression mode : Lossy
Stream size : 63.3 MiB (11%)
Alignment : Split accross interleaves
Interleave, duration : 40 ms (1.00 video frame)
Interleave, preload duration : 500 ms


Трекер:  [ 09-Сен-2017 21:18 ]

  

Скачать .torrent

Размер .torrent файла 12 KB


Размер: 1.17 GB
Хэш (hash) релиза: d048cf6ac77d783101c84b2e6110229fb4c379a2
Подписка на обновления:

Торренты, похожие на Люблю тебя любую Серии: 1-2 из 2 скачать торрент

Форум Название Автор Размер S L Добавлен
Российские сериалы ·· Люблю тебя любую / Серии: 1-2 из 2 (Юрий Купавых) [2017, мелодрама, WEBRip 1080p] Galfimbul 28571141812.66 GB 0 0 1505044699

14:58

10-Сен-17

Еще никто не оставлял запись к записи скачать торрент Люблю тебя любую Серии: 1-2 из 2 . Будь первым!

!Обратная связь