Скачать через торрент Смурфики: Затерянная деревня Smurfs: The Lost Village Фильм бесплатно в хорошем качестве torrent

Скачивайте на UnionPeer.org фильмы через торрент без регистрации. Новинки кино в хорошем качестве через торрент. На UnionPeer.org можно скачать через торрент фильмы 2014 и 2015 годов. Самые новые фильмы.

Скачать торрент Смурфики: Затерянная деревня Smurfs: The Lost Village бесплатно через .torrent фильм мультфильм сериал

Если у вас наблюдаются проблемы со скриншотами, переходом по ссылками, скачиванием торрентов - проблемы в блокировщике рекламы AdBlock. #хорошегоДня!


Статистика раздачи
Размер:  1.45 GB   |    Зарегистрирован:  15 дней   |    .torrent скачан:  24 раза   |   
Раздают:  3   Качают:  1  
   
Загрузка...
 
Автор Сообщение

Galfimbul

avatar Galfimbul


Смурфики: Затерянная деревня / Smurfs: The Lost Village
«Кто здесь?»
Страна: США
Жанр: мультфильм, фэнтези, комедия, приключения, семейный
Год выпуска: 2017
Продолжительность: 01:29:46Перевод: Профессиональный (дублированный) iTunes
Субтитры: нет
Оригинальная аудиодорожка: нетРежиссёр: Келли Эсбёри / Kelly AsburyРоли озвучивали: Ариэль Уинтер, Джо Манганьелло, Мишель Родригес, Джулия Робертс, Элли Кемпер, Мэнди Пэтинкин, Рэйн Уилсон, Деми Ловато, Джейк Джонсон, Джек МакБрайерОписание: Смурфетта и её лучшие друзья Умник, Растяпа и Силач, отправляются на поиски таинственной затерянной деревни, стремясь опередить злобного волшебника Гаргамеля. В пути смурфиков ожидают невероятные опасности и головокружительные приключения, но игра стоит свеч, ведь в конечном итоге герои смогут разгадать самую большую загадку в истории своего существования! Качество: BDRip-AVC / Smurfs.The.Lost.Village.2017.BDREMUX.1080p.
Формат: MKVВидео: MPEG-4 AVC, 1024x552 ( 1.85:1), 23.976 fps, ~1933 kbps avg, 0.143 bit/pixel
Аудио: 48 kHz, AC3 Dolby Digital, 3/2 (L,C,R,l,r) + LFE ch, ~384 kbps avg
Complete name : D:\Раздачи\Смурфики Затерянная деревня (2017) BDRip-AVC_ivanes20031987.mkv
Format : Matroska
Format version : Version 2
File size : 1.45 GiB
Duration : 1 h 29 min
Overall bit rate : 2 319 kb/s
Encoded date : UTC 2017-09-09 17:21:34
Writing application : mkvmerge v4.4.0 ('Die Wiederkehr') сборка от Jan 3 2011 21:40:45
Writing library : libebml v1.0.0 + libmatroska v1.0.0
Cover : Yes
Attachments : cover.png

Video
ID : 1
Format : AVC
Format/Info : Advanced Video Codec
Format profile : High@L4.1
Format settings, CABAC : Yes
Format settings, RefFrames : 12 frames
Codec ID : V_MPEG4/ISO/AVC
Duration : 1 h 29 min
Bit rate : 1 933 kb/s
Width : 1 024 pixels
Height : 552 pixels
Display aspect ratio : 1.85:1
Frame rate mode : Constant
Frame rate : 23.976 (24000/1001) FPS
Color space : YUV
Chroma subsampling : 4:2:0
Bit depth : 8 bits
Scan type : Progressive
Bits/(Pixel*Frame) : 0.143
Stream size : 1.18 GiB (81%)
Writing library : x264 core 152 r2851kMod ba24899
Encoding settings : cabac=1 / ref=12 / deblock=1:-3:-3 / analyse=0x3:0x113 / me=umh / subme=10 / psy=1 / fade_compensate=0.00 / psy_rd=1.00:0.00 / mixed_ref=1 / me_range=32 / chroma_me=1 / trellis=2 / 8x8dct=1 / cqm=0 / deadzone=21,11 / fast_pskip=0 / chroma_qp_offset=-2 / threads=12 / lookahead_threads=3 / sliced_threads=0 / nr=0 / decimate=0 / interlaced=0 / bluray_compat=0 / constrained_intra=0 / bframes=11 / b_pyramid=2 / b_adapt=2 / b_bias=0 / direct=1 / weightb=1 / open_gop=0 / weightp=2 / keyint=240 / keyint_min=23 / scenecut=40 / intra_refresh=0 / rc_lookahead=40 / rc=2pass / mbtree=0 / bitrate=1933 / ratetol=1.0 / qcomp=0.60 / qpmin=0 / qpmax=69 / qpstep=4 / cplxblur=20.0 / qblur=0.5 / vbv_maxrate=50000 / vbv_bufsize=62500 / nal_hrd=none / filler=0 / ip_ratio=1.40 / pb_ratio=1.30 / aq=1:1.00
Default : Yes
Forced : No

Audio
ID : 2
Format : AC-3
Format/Info : Audio Coding 3
Format settings, Endianness : Big
Codec ID : A_AC3
Duration : 1 h 29 min
Bit rate mode : Constant
Bit rate : 384 kb/s
Channel(s) : 6 channels
Channel positions : Front: L C R, Side: L R, LFE
Sampling rate : 48.0 kHz
Frame rate : 31.250 FPS (1536 SPF)
Bit depth : 16 bits
Compression mode : Lossy
Stream size : 247 MiB (17%)
Service kind : Complete Main
Default : Yes
Forced : No


Трекер:  [ 09-Сен-2017 20:36 ]

  

Скачать .torrent

Размер .torrent файла 15 KB


Размер: 1.45 GB
Хэш (hash) релиза: 875283ac3239821764dd2ad2551d4e0e2a365760
Подписка на обновления:

Торренты, похожие на Смурфики: Затерянная деревня Smurfs: The Lost Village скачать торрент

Форум Название Автор Размер S L Добавлен
Мультфильмы 2016-2017 (Новинки мультфильмов) ·· Смурфики: Затерянная деревня / Smurfs: The Lost Village (Келли Эсбёри) [2016 г., мультфильм, фэнтези, комедия, приключения, семейный, BDRip 1080p] DUB | Лицензия Galfimbul 1239559779911.54 GB 0 0 1506321854

09:44

25-Сен-17

Мультфильмы 2016-2017 (Новинки мультфильмов) ·· Смурфики: Затерянная деревня / Smurfs: The Lost Village (Келли Эсбёри) [2016 г., мультфильм, фэнтези, комедия, приключения, семейный, BDRip] DUB | Лицензия Galfimbul 15688007681.46 GB 2 5 1506321852

09:44

25-Сен-17

Мультфильмы 2016-2017 (Новинки мультфильмов) ·· Смурфики: Затерянная деревня / Smurfs: The Lost Village (Келли Эсбёри / Kelly Asbury) [2017, США, мультфильм, фэнтези, комедия, приключения, семейный, Blu-Ray CEE 1080p] Лицензия Galfimbul 3519802272332.78 GB 0 0 1506249795

13:43

24-Сен-17

Мультфильмы до 2016 ·· Смурфики: Затерянная деревня / Smurfs: The Lost Village (Келли Эсбёри / Kelly Asbury) [2017, США, Мультфильм, фэнтези, комедия, приключения, семейный, BDRip 1080p] Dub + Sub Rus, Eng + Original Eng Galfimbul 100097878459.32 GB 0 0 1498725377

11:36

29-Июн-17

Мультфильмы 2016-2017 (Новинки мультфильмов) ·· Смурфики: Затерянная деревня / Smurfs: The Lost Village (Келли Эсбёри) [2016 г., мультфильм, фэнтези, комедия, приключения, семейный, WEB-DLRip] DUB | Чистый звук Galfimbul 14675517441.37 GB 8 15 1498305150

14:52

24-Июн-17

Мультфильмы 2016-2017 (Новинки мультфильмов) ·· Смурфики: Затерянная деревня / Smurfs: The Lost Village (Келли Эсбёри) [2016 г., мультфильм, фэнтези, комедия, приключения, семейный, WEB-DL 720p] DUB | Чистый звук Galfimbul 31131487272.9 GB 3 20 1498305149

14:52

24-Июн-17

Мультфильмы 2016-2017 (Новинки мультфильмов) ·· Смурфики: Затерянная деревня / Smurfs: The Lost Village (Келли Эсбёри) [2016 г., мультфильм, фэнтези, комедия, приключения, семейный, WEB-DL 1080p] DUB | Чистый звук Galfimbul 36628534593.41 GB 3 27 1498305147

14:52

24-Июн-17

Мультфильмы 2016-2017 (Новинки мультфильмов) ·· Смурфики: Затерянная деревня / Smurfs: The Lost Village (Келли Эсбёри) [2017, мультфильм, фэнтези, комедия, приключения, семейный, TS] Galfimbul 14678999041.37 GB 2 0 1491731560

12:52

9-Апр-17

3D Мультфильмы ·· Смурфики: Затерянная деревня в 3Д / Smurfs: The Lost Village 3D (Келли Эсбёри / Kelly Asbury) [2017, Мультфильм, Фэнтези, Комедия, Приключения, Семейный, BDrip] iTunes, Half OverUnder / Вертикальная анаморфная стереопара Galfimbul 100078853579.32 GB 0 0 1504820037

00:33

8-Сен-17

3D Мультфильмы ·· Смурфики: Затерянная деревня в 3Д / Smurfs: The Lost Village 3D (Келли Эсбёри / Kelly Asbury) [2017, Мультфильм, Фэнтези, Комедия, Приключения, Семейны, BDrip, 1080p] OverUnder / Вертикальная стереопара Galfimbul 1241006384411.56 GB 0 0 1504818220

00:03

8-Сен-17

Еще никто не оставлял запись к записи скачать торрент Смурфики: Затерянная деревня Smurfs: The Lost Village . Будь первым!

!Обратная связь