It Comes at Night torrent

, , - AdBlock. #!


3.1 GB   |    :  2 14    |    .torrent :  21    |   
1  
   
...
 

Galfimbul

avatar Galfimbul


/ It Comes at Night
-

6.080 / 10 7.00 / 10
: 2017
:
: , ,
: 01:31:36

: (iTunes)
:
C: ,
:
:
: , , .
:
:
: , ,
: ,
: , , , , , , , , , Β

: $5 000 000
: $13 898 397
: + $5 295 814 = $19 194 211
: $397 627

: 29 2017
(): 24 2017,

: , . . , . . , ?.. : BDRemux (BlueBird)
: BDRip
: HD (720p)
: M4V
: H.264, 1280x544, 2.35:1, 3 500 Kbps, 23.976 (23976/1000) fps

1: / (iTunes), AAC / 2.0 / 160 Kbps / 48.0 KHz
2: / , AAC / 2.0 / 160 Kbps / 48.0 KHz
3: / (iTunes), AC-3 / 5.1 / 384 Kbps / 48.0 KHz
4: / , AC-3 / 5.1 / 640 Kbps / 48.0 KHz

1:
2:
Sort Name: It Comes At Night
XID: Apple:vendor_id:2017-998552
contentID: 1243275284
Copyright: 2017 A24 Distribution, LLC
Screenwriters:
Producers: , , .
Director:
Cast: , , , , , , , , , Β, , , , ,
Studio: A24
Rating: 5
Long Description: , . . , . . , ?..
Description: , . . , . . , ?..
Release Date: 2017-04-29T08:00:00Z
Genre: Thriller
Artist: Trey Edward Shults
Name: It Comes At Night
General
Complete name : /Users/imac/HandBrake/It Comes At Night (720p HD).m4v
Format : MPEG-4
Codec ID : M4V (M4V /M4A /mp42/isom)
File size : 3.10 GiB
Duration : 1h 31mn
Overall bit rate mode : Variable
Overall bit rate : 4 837 Kbps
Movie name : It Comes At Night
Performer : Trey Edward Shults
Director :
Actor : / / / / / / / / / Β / / / / /
Screenplay by :
Producer : / / .
Production studio : A24
Genre : Thriller
ContentType : Short Film
Description : , . . , . . , ?..
Recorded date : UTC 2017-04-29 08:00:00
Encoded date : UTC 2017-09-09 15:46:07
Tagged date : UTC 2017-09-09 15:47:28
Copyright : 2017 A24 Distribution, LLC
Cover : Yes
Rating : None
Title/Sort : It Comes At Night
LongDescription : , . . , . . , ?..
HDVideo : Yes
AppleStoreCatalogID : 1243275284
Vendor : Apple:vendor_id:2017-998552
ContentRating : mpaa|R|400|

Video #1
ID : 1
Format : AVC
Format/Info : Advanced Video Codec
Format profile : High@L3.1
Format settings, CABAC : No
Format settings, ReFrames : 3 frames
Codec ID : avc1
Codec ID/Info : Advanced Video Coding
Duration : 1h 31mn
Source duration : 1h 31mn
Bit rate : 3 500 Kbps
Width : 1 280 pixels
Height : 544 pixels
Display aspect ratio : 2.35:1
Frame rate mode : Variable
Frame rate : 23.976 (23976/1000) fps
Minimum frame rate : 13.158 fps
Maximum frame rate : 23.981 fps
Color space : YUV
Chroma subsampling : 4:2:0
Bit depth : 8 bits
Scan type : Progressive
Bits/(Pixel*Frame) : 0.210
Stream size : 2.23 GiB (72%)
Source stream size : 2.23 GiB (72%)
Title : Main Program
Writing library : x264 core 148 r2708 86b7198
Encoding settings : cabac=0 / ref=3 / deblock=1:-3:-3 / analyse=0x3:0x113 / me=umh / subme=9 / psy=1 / psy_rd=1.00:0.15 / mixed_ref=1 / me_range=32 / chroma_me=1 / trellis=0 / 8x8dct=1 / cqm=0 / deadzone=21,11 / fast_pskip=0 / chroma_qp_offset=-2 / threads=17 / lookahead_threads=1 / sliced_threads=0 / nr=0 / decimate=0 / interlaced=0 / bluray_compat=0 / constrained_intra=0 / bframes=3 / b_pyramid=0 / b_adapt=2 / b_bias=0 / direct=1 / weightb=0 / open_gop=0 / weightp=0 / keyint=240 / keyint_min=24 / scenecut=40 / intra_refresh=0 / rc_lookahead=40 / rc=2pass / mbtree=1 / bitrate=3500 / ratetol=1.0 / qcomp=0.65 / qpmin=0 / qpmax=69 / qpstep=4 / cplxblur=20.0 / qblur=0.5 / vbv_maxrate=9500 / vbv_bufsize=9500 / nal_hrd=none / filler=0 / ip_ratio=1.40 / aq=1:1.10
Language : English
Encoded date : UTC 2017-09-09 15:46:07
Tagged date : UTC 2017-09-09 15:46:14
Color range : Limited
Color primaries : BT.709
Transfer characteristics : BT.709
Matrix coefficients : BT.709
Menus : 8,9

Video #2
ID : 9
Format : JPEG
Codec ID : jpeg
Duration : 1h 31mn
Bit rate mode : Variable
Bit rate : 704 bps
Width : 640 pixels
Height : 272 pixels
Display aspect ratio : 2.35:1
Frame rate mode : Variable
Frame rate : 0.003 fps
Minimum frame rate : 0.002 fps
Maximum frame rate : 0.005 fps
Color space : YUV
Chroma subsampling : 4:2:0
Bit depth : 8 bits
Compression mode : Lossy
Bits/(Pixel*Frame) : 1.348
Stream size : 458 KiB (0%)
Title : Chapter Images
Language : English
Default : No
Encoded date : UTC 2017-09-09 15:46:52
Tagged date : UTC 2017-09-09 15:46:52
Menu For : 1

Audio #1
ID : 2
Format : AAC
Format/Info : Advanced Audio Codec
Format profile : LC
Codec ID : 40
Duration : 1h 31mn
Bit rate mode : Variable
Bit rate : 156 Kbps
Maximum bit rate : 230 Kbps
Channel(s) : 2 channels
Channel positions : Front: L R
Sampling rate : 48.0 KHz
Frame rate : 46.875 fps (1024 SPF)
Compression mode : Lossy
Stream size : 103 MiB (3%)
Title : Russian Stereo
Language : Russian
Default : Yes
Alternate group : 1
Encoded date : UTC 2017-09-09 15:46:07
Tagged date : UTC 2017-09-09 15:46:48
Fallback From : 4

Audio #2
ID : 3
Format : AAC
Format/Info : Advanced Audio Codec
Format profile : LC
Codec ID : 40
Duration : 1h 31mn
Bit rate mode : Variable
Bit rate : 155 Kbps
Maximum bit rate : 239 Kbps
Channel(s) : 2 channels
Channel positions : Front: L R
Sampling rate : 48.0 KHz
Frame rate : 46.875 fps (1024 SPF)
Compression mode : Lossy
Stream size : 101 MiB (3%)
Title : English Stereo
Language : English
Default : No
Alternate group : 1
Encoded date : UTC 2017-09-09 15:46:07
Tagged date : UTC 2017-09-09 15:46:48
Fallback From : 5

Audio #3
ID : 4
Format : AC-3
Format/Info : Audio Coding 3
Format settings, Endianness : Big
Codec ID : ac-3
Duration : 1h 31mn
Bit rate mode : Constant
Bit rate : 384 Kbps
Channel(s) : 6 channels
Channel positions : Front: L C R, Side: L R, LFE
Sampling rate : 48.0 KHz
Frame rate : 31.250 fps (1536 SPF)
Bit depth : 16 bits
Compression mode : Lossy
Stream size : 252 MiB (8%)
Title : Russian DD 5.1
Language : Russian
Service kind : Complete Main
Default : Inherited From: 2
Alternate group : 1
Encoded date : UTC 2017-09-09 15:46:07
Tagged date : UTC 2017-09-09 15:46:48
Fallback To : 2

Audio #4
ID : 5
Format : AC-3
Format/Info : Audio Coding 3
Format settings, Endianness : Big
Codec ID : ac-3
Duration : 1h 31mn
Bit rate mode : Constant
Bit rate : 640 Kbps
Channel(s) : 6 channels
Channel positions : Front: L C R, Side: L R, LFE
Sampling rate : 48.0 KHz
Frame rate : 31.250 fps (1536 SPF)
Bit depth : 16 bits
Compression mode : Lossy
Stream size : 419 MiB (13%)
Title : English DD 5.1
Language : English
Service kind : Complete Main
Default : No
Alternate group : 1
Encoded date : UTC 2017-09-09 15:46:07
Tagged date : UTC 2017-09-09 15:46:48
Fallback To : 3

Text #1
ID : 6
Format : Timed Text
Muxing mode : sbtl
Codec ID : tx3g
Duration : 1h 27mn
Bit rate mode : Variable
Bit rate : 66 bps
Stream size : 42.6 KiB (0%)
Title : Russian full
Language : Russian
Default : Yes
Forced : No
Alternate group : 2
Encoded date : UTC 2017-09-09 15:46:07
Tagged date : UTC 2017-09-09 15:46:48

Text #2
ID : 7
Format : Timed Text
Muxing mode : sbtl
Codec ID : tx3g
Duration : 1h 27mn
Bit rate mode : Variable
Bit rate : 41 bps
Stream size : 26.1 KiB (0%)
Title : English full
Language : English
Default : No
Forced : No
Alternate group : 2
Encoded date : UTC 2017-09-09 15:46:07
Tagged date : UTC 2017-09-09 15:46:47

Menu #1
00:00:00.000 : Chapter 1
00:05:09.226 : Chapter 2
00:11:16.180 : Chapter 3
00:16:20.357 : Chapter 4
00:24:44.402 : Chapter 5
00:28:20.326 : Chapter 6
00:35:04.521 : Chapter 7
00:42:06.798 : Chapter 8
00:47:58.891 : Chapter 9
00:51:25.347 : Chapter 10
00:56:15.887 : Chapter 11
01:01:22.736 : Chapter 12
01:07:28.144 : Chapter 13
01:13:37.764 : Chapter 14
01:20:18.164 : Chapter 15
01:26:26.782 : Chapter 16

Menu #2
ID : 8
Codec ID : text
Duration : 1h 31mn
Language : English
Encoded date : UTC 2017-09-09 15:46:48
Tagged date : UTC 2017-09-09 15:46:48
Menu For : 1
00:00:00.000 : Chapter 1
00:05:09.226 : Chapter 2
00:11:16.180 : Chapter 3
00:16:20.357 : Chapter 4
00:24:44.402 : Chapter 5
00:28:20.326 : Chapter 6
00:35:04.521 : Chapter 7
00:42:06.798 : Chapter 8
00:47:58.891 : Chapter 9
00:51:25.347 : Chapter 10
00:56:15.887 : Chapter 11
01:01:22.736 : Chapter 12
01:07:28.144 : Chapter 13
01:13:37.764 : Chapter 14
01:20:18.164 : Chapter 15
01:26:26.782 : Chapter 16
Bit rate mode : VBR
x264 [info]: frame I:826 Avg QP:16.50 size: 85587
x264 [info]: frame P:42197 Avg QP:18.78 size: 30419
x264 [info]: frame B:88762 Avg QP:19.20 size: 11779
x264 [info]: consecutive B-frames: 1.6% 11.1% 44.0% 43.3%
x264 [info]: mb I I16..4: 4.6% 72.1% 23.2%
x264 [info]: mb P I16..4: 0.3% 3.4% 1.2% P16..4: 51.9% 27.8% 12.5% 0.0% 0.0% skip: 2.8%
x264 [info]: mb B I16..4: 0.0% 0.3% 0.1% B16..8: 56.8% 13.7% 1.9% direct: 5.1% skip:22.1% L0:46.9% L1:49.6% BI: 3.5%
x264 [info]: 8x8 transform intra:70.7% inter:50.2%
x264 [info]: coded y,uvDC,uvAC intra: 95.1% 63.0% 34.2% inter: 34.7% 12.0% 3.2%
x264 [info]: i16 v,h,dc,p: 27% 18% 11% 44%
x264 [info]: i8 v,h,dc,ddl,ddr,vr,hd,vl,hu: 6% 5% 4% 13% 18% 16% 16% 11% 10%
x264 [info]: i4 v,h,dc,ddl,ddr,vr,hd,vl,hu: 6% 6% 2% 13% 19% 16% 16% 11% 10%
x264 [info]: i8c dc,h,v,p: 56% 16% 19% 10%
x264 [info]: ref P L0: 61.0% 21.8% 17.2%
x264 [info]: ref B L0: 68.4% 31.6%
x264 [info]: kb/s:3492.60
Apple TV, iPad, iPhone, iPod Touch.
Windows VLC media player

 ·  , , FAQ-
:  [ 09--2017 19:42 ]

  

.torrent

.torrent 31 KB


: 3.1 GB
(hash) : bc201cb87920ae3a96b8a8f0c9b9ddc6aa08cf0c
··
...

It Comes at Night . !

!