Скачать через торрент Тайны и ложь Серии: 1-8 из 8 Фильм бесплатно в хорошем качестве torrent

Скачивайте на UnionPeer.org фильмы через торрент без регистрации. Новинки кино в хорошем качестве через торрент. На UnionPeer.org можно скачать через торрент фильмы 2014 и 2015 годов. Самые новые фильмы.

Скачать торрент Тайны и ложь Серии: 1-8 из 8 бесплатно через .torrent фильм мультфильм сериал

Если у вас наблюдаются проблемы со скриншотами, переходом по ссылками, скачиванием торрентов - проблемы в блокировщике рекламы AdBlock. #хорошегоДня!


Статистика раздачи
Размер:  7.82 GB   |    Зарегистрирован:  2 месяца 13 дней   |    .torrent скачан:  55 раз   |   
Раздают:  2  
   
Загрузка...
 
Автор Сообщение

Galfimbul

avatar Galfimbul


Тайны и ложь

Год выпуска: 2017
Производство: Star Media
Жанр: детектив, триллер, драма
Продолжительность: ~00:49:00 серия
Субтитры: нет

Режиссёр: Дмитрий Лактионов

В ролях: Павел Трубинер, Ольга Ломоносова, Ксения Лукьянчикова, Дмитрий Сутырин, Наталья Высочанская, Александр Иванов (XIV), Анастасия Чистякова (II), Оксана Базилевич, Владислав Демьяненко, Сергей Колос, Маша Полиенко

Описание: Во время утренней пробежки Антон Гаврилов находит убитым пятилетнего Тёму, мальчика, жившего в доме напротив. Начинается следствие, возглавляемое Корецким, странным и отталкивающим человеком, уверенным, что Антон что-то скрывает. Подозреваемый вынужден приступить к собственному расследованию, в результате которого, выясняется, что у его соседей и даже у самых близких людей есть свои неприглядные, а то и пугающие тайны. Пока Антон, исходя из логики своих догадок, подозревает то одного, то другого и пытается что-то предпринять - его собственная жизнь рушится. Тем не менее, ему удаётся выяснить шокирующую и неожиданную правду.

Реклама: Нет.



Sample

Качество: WEBRip 1080p
Формат: MKV
Видео кодек: H.264
Аудио кодек: AC3
Видео: MPEG4 AVC Video, H264, 16:9, 1920x1080, 25 fps, ~2650 kbps 0.051 bit/pixel
Аудио: AC3 Dolby Digital, 44,1 kHz, 2/0 (L,R) ch, 192 kbps
General
Unique ID : 215247605653839700810068435750790576732 (0xA1EF2E50AF13AAAFA06CC945F6B73A5C)
Complete name : E:\Тайны и ложь 2017\01.Тайны и ложь.2017.WEB-DL (1080p).by.Nicodem.Files-x.mkv
Format : Matroska
Format version : Version 4 / Version 2
File size : 1.00 GiB
Duration : 49mn 36s
Overall bit rate : 2 896 Kbps
Writing application : Lavf56.36.100
Writing library : Lavf56.36.100

Video
ID : 1
Format : AVC
Format/Info : Advanced Video Codec
Format profile : High@L4.0
Format settings, CABAC : Yes
Format settings, ReFrames : 2 frames
Codec ID : V_MPEG4/ISO/AVC
Duration : 49mn 36s
Bit rate : 2 646 Kbps
Width : 1 920 pixels
Height : 1 080 pixels
Display aspect ratio : 16:9
Frame rate mode : Constant
Frame rate : 25.000 fps
Color space : YUV
Chroma subsampling : 4:2:0
Bit depth : 8 bits
Scan type : Progressive
Bits/(Pixel*Frame) : 0.051
Stream size : 939 MiB (91%)
Default : Yes
Forced : No
Color primaries : BT.709
Transfer characteristics : BT.709
Matrix coefficients : BT.709

Audio
ID : 2
Format : AC-3
Format/Info : Audio Coding 3
Mode extension : CM (complete main)
Format settings, Endianness : Big
Codec ID : A_AC3
Duration : 49mn 36s
Bit rate mode : Constant
Bit rate : 192 Kbps
Channel count : 2 channels
Channel positions : Front: L R
Sampling rate : 44.1 KHz
Bit depth : 16 bits
Compression mode : Lossy
Stream size : 68.1 MiB (7%)
Language : unknown
Default : Yes
Forced : No


Трекер:  [ 09-Сен-2017 19:18 ]

  

Скачать .torrent

Размер .torrent файла 40 KB


Размер: 7.82 GB
Хэш (hash) релиза: d7b8bdb69fe62d031bb0fa1f0ad452b1db055c8e
Подписка на обновления:

Еще никто не оставлял запись к записи скачать торрент Тайны и ложь Серии: 1-8 из 8 . Будь первым!

!Обратная связь