Скачать через торрент Жизнь после карьеры в Порно After Porn Ends Фильм бесплатно в хорошем качестве torrent

Скачивайте на UnionPeer.org фильмы через торрент без регистрации. Новинки кино в хорошем качестве через торрент. На UnionPeer.org можно скачать через торрент фильмы 2014 и 2015 годов. Самые новые фильмы.

Скачать торрент Жизнь после карьеры в Порно After Porn Ends бесплатно через .torrent фильм мультфильм сериал

Если у вас наблюдаются проблемы со скриншотами, переходом по ссылками, скачиванием торрентов - проблемы в блокировщике рекламы AdBlock. #хорошегоДня!


Статистика раздачи
Размер:  5.77 GB   |    Зарегистрирован:  1 месяц 13 дней   |    .torrent скачан:  27 раз   |   
Раздают:  1  
   
Загрузка...
 
Автор Сообщение

Galfimbul

avatar Galfimbul


Жизнь после карьеры в Порно / After Porn Ends

Страна: США
Студия: Mallick Media, Oxymoron Entertainment
Жанр: Документальный
Год выпуска: 2012
Продолжительность: 01:33:02

Перевод: Одноголосый (закадровый) - Вадим Назаров
Субтитры: Английские
Оригинальная аудиодорожка: Английский

Режиссёр: Брайс Вагонер / Bryce Wagoner
В ролях: Азия Каррера, Тиффани Милион, Ричард Пачеко, Мэри Кэри, Крисси Моран, Джон Лесли, Эмбер Линн, Шелли Люббен, Рэйлин, Сека, Хьюстон, Рэнди Уэст, Нина Хартли, Люк Форд, Уильям Маргольд, Дженна Джеймсон, Кайли Айрлэнд, Тера Патрик, Рон Джереми, Джульетт Андерсон, Т.Т. Бой, Крис Кэссиди, Сторми, Марк Дэвис, Томми Ганн

Описание: Фильм знакомит с одними из самых старых звезд индустрии для взрослых и рассказывает об их жизни по завершении карьеры. Кто-то принимает её с гордостью и без сожаления, как путь к обретению гармонии и счастья в жизни. Других карьера в порно привела к отчаянию и страданиям, и они всеми силами пытаются избавиться от последствий работы в индустрии.

Доп. информация:
Автор релиза -
Заказ перевода у Вадима Назарова (июнь 2017) - ylnian
За сборку дороги спасибо rammzez
Источник - After.Porn.Ends.2012.1080p.WEBRip.DD2.0.x264-TrollHD

Рекламы нет!

Сэмпл: https://yadi.sk/i/bxYElgSU3Lkm8E

Качество видео: WEBRip 1080p
Формат видео: MKV

Видео: MPEG-4, 1920x1080 (16:9), 23.976 fps, 7845 kbps, 0.158 bit/pixel
Аудио 1: Русский АС3, 48000 Гц, 6ch, 384 kbps
Аудио 2: Английский АС3, 48000 Гц, 2ch, 640 kbps
Формат субтитров: softsub (SRT)
ОбщееУникальный идентификатор : 202139319614992551623410424053314299325 (0x98129DEA6F95C7F9B66DD56F17CF25BD)Полное имя : D:\After.Porn.Ends.2012.WEBRip.1080p-ylnian.mkvФормат : MatroskaВерсия формата : Version 4 / Version 2Размер файла : 5,77 ГбайтПродолжительность : 1 ч. 33 м.Общий поток : 8870 Кбит/секНазвание фильма : After.Porn.Ends.2012.WEBRip.1080p-ylnianДата кодирования : UTC 2017-07-23 09:50:30Программа кодирования : mkvmerge v14.0.0 ('Flow') 64bitБиблиотека кодирования : libebml v1.3.4 + libmatroska v1.4.5

ВидеоИдентификатор : 1Формат : AVCФормат/Информация : Advanced Video CodecПрофиль формата : High@L4.1Параметр CABAC формата : ДаПараметр ReFrames формата : 4 кадраИдентификатор кодека : V_MPEG4/ISO/AVCПродолжительность : 1 ч. 33 м.Битрейт : 7845 Кбит/секШирина : 1920 пикселейВысота : 1080 пикселейСоотношение сторон : 16:9Режим частоты кадров : ПостоянныйЧастота кадров : 23,976 (24000/1001) кадра/секЦветовое пространство : YUVСубдискретизация насыщенности : 4:2:0Битовая глубина : 8 битТип развёртки : ПрогрессивнаяБит/(Пиксели*Кадры) : 0.158Размер потока : 5,10 Гбайт (88%)Заголовок : After.Porn.Ends.2012.1080p.WEBRip.DD2.0.x264-TrollHDБиблиотека кодирования : x264 core 146 r2538 121396cНастройки программы : cabac=1 / ref=4 / deblock=1:-2:-2 / analyse=0x3:0x133 / me=umh / subme=10 / psy=1 / psy_rd=1.00:0.15 / mixed_ref=1 / me_range=48 / chroma_me=1 / trellis=2 / 8x8dct=1 / cqm=0 / deadzone=21,11 / fast_pskip=1 / chroma_qp_offset=-3 / threads=12 / lookahead_threads=2 / sliced_threads=0 / nr=0 / decimate=0 / interlaced=0 / bluray_compat=0 / constrained_intra=0 / bframes=8 / b_pyramid=2 / b_adapt=2 / b_bias=0 / direct=3 / weightb=1 / open_gop=0 / weightp=2 / keyint=240 / keyint_min=23 / scenecut=40 / intra_refresh=0 / rc_lookahead=60 / rc=crf / mbtree=1 / crf=18.0 / qcomp=0.70 / qpmin=0 / qpmax=69 / qpstep=4 / vbv_maxrate=300000 / vbv_bufsize=300000 / crf_max=0.0 / nal_hrd=none / filler=0 / ip_ratio=1.30 / aq=1:0.90Язык : EnglishDefault : ДаForced : Да

Аудио #1Идентификатор : 2Формат : AC-3Формат/Информация : Audio Coding 3Параметр Endianness формата : BigИдентификатор кодека : A_AC3Продолжительность : 1 ч. 33 м.Вид битрейта : ПостоянныйБитрейт : 384 Кбит/секКаналы : 6 каналовРасположение каналов : Front: L C R, Side: L R, LFEЧастота : 48,0 КГцЧастота кадров : 31,250 кадров/сек (1536 spf)Битовая глубина : 16 битМетод сжатия : С потерямиРазмер потока : 256 Мбайт (4%)Заголовок : VO (Назаров) (AC3 5.1 384 kbps)Язык : RussianServiceKind/String : Complete MainDefault : ДаForced : Да

Аудио #2Идентификатор : 3Формат : AC-3Формат/Информация : Audio Coding 3Параметр Endianness формата : BigИдентификатор кодека : A_AC3Продолжительность : 1 ч. 33 м.Вид битрейта : ПостоянныйБитрейт : 640 Кбит/секКаналы : 2 каналаРасположение каналов : Front: L RЧастота : 48,0 КГцЧастота кадров : 31,250 кадров/сек (1536 spf)Битовая глубина : 16 битМетод сжатия : С потерямиРазмер потока : 426 Мбайт (7%)Заголовок : AC3 2.0 640 kbpsЯзык : EnglishServiceKind/String : Complete MainDefault : НетForced : Нет

ТекстИдентификатор : 4Формат : UTF-8Идентификатор кодека : S_TEXT/UTF8Идентификатор кодека/Информация : UTF-8 Plain TextПродолжительность : 1 ч. 26 м.Битрейт : 131 бит/секElementCount : 1999Размер потока : 83,0 Кбайт (0%)Язык : EnglishDefault : НетForced : Нет


Трекер:  [ 09-Сен-2017 19:12 ]

  

Скачать .torrent

Размер .torrent файла 29 KB


Размер: 5.77 GB
Хэш (hash) релиза: fade54a0e82e0ee856479bc3b2cc76ba1abbfcb7
Подписка на обновления:

Торренты, похожие на Жизнь после карьеры в Порно After Porn Ends скачать торрент

Форум Название Автор Размер S L Добавлен
Документальные фильмы и телепередачи ·· Жизнь после карьеры в Порно / After Porn Ends (Брайс Вагонер / Bryce Wagoner) [2012, Документальный, WEBRip 1080p] Galfimbul 76526600727.13 GB 2 0 1502851419

05:43

16-Авг-17

Документальные фильмы и телепередачи ·· Жизнь после карьеры в Порно / After Porn Ends (Брайс Вагонер / Bryce Wagoner) [2012, США, Документальный, WEB-DL 720p] VO (Вадим Назаров) + Original Eng + Sub Eng Galfimbul 32722066413.05 GB 0 0 1502034231

18:43

6-Авг-17

Документальные фильмы и телепередачи ·· Жизнь после карьеры в Порно 2 / After Porn Ends 2 (Брайс Вагонер / Bryce Wagoner) [2017, США, Документальный, WEB-DLRip] VO (Вадим Назаров) Galfimbul 15639040001.46 GB 0 0 1504192385

18:13

31-Авг-17

Документальные фильмы и телепередачи ·· Жизнь после карьеры в Порно 2 / After Porn Ends 2 (Брайс Вагонер / Bryce Wagoner) [2017, США, Документальный, WEB-DL 720p] VO (Вадим Назаров) + Original Eng + Sub Eng Galfimbul 35885772173.34 GB 2 0 1501344790

19:13

29-Июл-17

Еще никто не оставлял запись к записи скачать торрент Жизнь после карьеры в Порно After Porn Ends . Будь первым!

!Обратная связь