Скачать через торрент Барби: Дримтопия. Фестиваль веселья Barbie Dreamtopia: Festival of Fun Фильм бесплатно в хорошем качестве torrent

Скачивайте на UnionPeer.org фильмы через торрент без регистрации. Новинки кино в хорошем качестве через торрент. На UnionPeer.org можно скачать через торрент фильмы 2014 и 2015 годов. Самые новые фильмы.

Скачать торрент Барби: Дримтопия. Фестиваль веселья Barbie Dreamtopia: Festival of Fun бесплатно через .torrent фильм мультфильм сериал

Если у вас наблюдаются проблемы со скриншотами, переходом по ссылками, скачиванием торрентов - проблемы в блокировщике рекламы AdBlock. #хорошегоДня!


Статистика раздачи
Размер:  691 MB   |    Зарегистрирован:  15 дней   |    .torrent скачан:  23 раза   |   
Раздают:  1  
   
Загрузка...
 
Автор Сообщение

Galfimbul

avatar Galfimbul


Барби: Дримтопия. Фестиваль веселья / Barbie Dreamtopia: Festival of Fun

Год выпуска: 2017
Страна: США, Mattel Creations
Жанр: приключения, мультфильм
Продолжительность: 00:40:33
Перевод: Профессиональный (дублированный)

Режиссёр: Ирэн Лэзер / Eran Lazar

Описание: Новый мультфильм о приключениях Барби и её сестренки Челси, в котором они путешествуют по волшебным мирам воображения.

Дримтопия - это волшебный мир, созданный воображением Челси, младшей сестрёнки Барби. Эта страна состоит из прекрасных лесов, гор, бухт и дворцов, а населяют ее красивые принцессы, феи и сказочные персонажи. На этот раз девочки запланировали провести чудесный праздник. Присоединяйтесь к Челси и Барби в их добрых приключениях в Дримтопии - мире фантазий, в котором возможно всё!

Доп. информация:



Трансляция спутникового канала:


Релиз группы:

Семпл: https://yadi.sk/i/Of4KKfKr3Mk7eo

Качество видео: DVB
Формат видео: MPEG-TS

Видео: MPEG4 Video (H264), 720x576@785x576 (4:3), анаморф, 25 fps, 2100 kbps
Аудио: MPEG Audio, 2 сh, 48 kHz, 192 kbps
G:\Барби. Дримтопия. Фестиваль веселья. (2017)_DVB by SLuMeP.ts
General #1
ID : 1 (0x1)
Complete name : G:\Барби. Дримтопия. Фестиваль веселья. (2017)_DVB by SLuMeP.ts
Format : MPEG-TS
File size : 691 MiB
Duration : 40mn 33s
Overall bit rate mode : Variable
Overall bit rate : 2 381 Kbps

Video #222
ID : 222 (0xDE)
Menu ID : 822 (0x336)
Format : AVC
Format/Info : Advanced Video Codec
Format profile : High@L3.0
Format settings, CABAC : Yes
Format settings, ReFrames : 4 frames
Codec ID : 27
Duration : 40mn 33s
Bit rate : 2 069 Kbps
Width : 720 pixels
Height : 576 pixels
Display aspect ratio : 16:9
Frame rate : 25.000 fps
Standard : Component
Color space : YUV
Chroma subsampling : 4:2:0
Bit depth : 8 bits
Scan type : Interlaced
Scan order : Top Field First
Bits/(Pixel*Frame) : 0.200
Stream size : 600 MiB (87%)
Color primaries : BT.601 PAL
Transfer characteristics : BT.470 System B, BT.470 System G
Matrix coefficients : BT.601

Audio #322
ID : 322 (0x142)
Menu ID : 822 (0x336)
Format : MPEG Audio
Format version : Version 1
Format profile : Layer 2
Codec ID : 3
Duration : 40mn 33s
Bit rate mode : Constant
Bit rate : 192 Kbps
Channel(s) : 2 channels
Sampling rate : 48.0 KHz
Compression mode : Lossy
Stream size : 55.7 MiB (8%)
Language : Russian


Трекер:  [ 09-Сен-2017 18:36 ]

  

Скачать .torrent

Размер .torrent файла 14 KB


Размер: 691 MB
Хэш (hash) релиза: eee78da257a53f75b20a6a8afb451be6320703c1
Подписка на обновления:

Еще никто не оставлял запись к записи скачать торрент Барби: Дримтопия. Фестиваль веселья Barbie Dreamtopia: Festival of Fun . Будь первым!

!Обратная связь