Скачать через торрент Диана, наша мама: ее жизнь и наследие Diana, Our Mother: Her Life and Legacy Фильм бесплатно в хорошем качестве torrent

Скачивайте на UnionPeer.org фильмы через торрент без регистрации. Новинки кино в хорошем качестве через торрент. На UnionPeer.org можно скачать через торрент фильмы 2014 и 2015 годов. Самые новые фильмы.

Скачать торрент Диана, наша мама: ее жизнь и наследие Diana, Our Mother: Her Life and Legacy бесплатно через .torrent фильм мультфильм сериал

Если у вас наблюдаются проблемы со скриншотами, переходом по ссылками, скачиванием торрентов - проблемы в блокировщике рекламы AdBlock. #хорошегоДня!


Статистика раздачи
Размер:  4.35 GB   |    Зарегистрирован:  15 дней   |    .torrent скачан:  2 раза   |   
Раздают:  1  
   
Загрузка...
 
Автор Сообщение

Galfimbul

avatar Galfimbul


Диана, наша мама: ее жизнь и наследие / Diana, Our Mother: Her Life and Legacy

Дата/Год выпуска: 2017
Страна: Великобритания
Жанр: Документальный, Биография, История
Продолжительность: 01:08:14
Перевод: Профессиональный (многоголосый закадровый)
Доп. инфо о переводе: 1 канал
Русские субтитры: нет

Оригинальная аудиодорожка: английский
Режиссер: Ashley Gething

Описание: Премьера фильма «Диана — наша мама» приурочена к 20-й годовщине ее трагической гибели. Он рассказывает о жизни и общественной деятельности Дианы, принцессы Уэльской. По словам исполнительного продюсера фильма Ника Кента, «фильм покажет принцессу Диану такой, какой ее никто раньше не видел, глазами тех двух людей, которые знали ее лучше других». В фильме впервые будут представлены интервью с людьми, близко знавшими Диану, и новые архивные материалы. Глубоко личные воспоминания членов семьи и друзей принцессы Уэльской, многие из которых никогда раньше не давали интервью, позволят зрителям лучше узнать человека, повлиявшего на жизнь миллионов людей. Дети принцессы Дианы расскажут о ее благотворительной и гуманитарной деятельности. Она активно боролась за запрет противопехотных мин, поддерживала людей, потерявших близких, помогала бездомным и вела борьбу с распространением СПИДа. На протяжении всего фильма братья рассматривают семейный фотоальбом и вспоминают самые веселые и трогательные моменты своего детства.

Доп. информация: На первом канале показали сокращенную телеверсию, поэтому здесь много мест без перевода.

Сэмпл: http://multi-up.com/1167717

качество: WEB-DL
формат: MKV
Видео: AVC, 1920x1080 (16:9), 23.976 fps, 8 536 Kbps (0.172 bit/pixel)
Аудио: Аудио #1: AC-3, 48.0 KHz, 2 ch, 192 Kbps, CBR - русский
Аудио 2: E-AC-3, 48.0 KHz, 2 ch, 224 Kbps, CBR (English) - английский
Субтитры: softsub (srt)
ОбщееУникальный идентификатор : 180879328126597181404367549581940514895 (0x8814176858F2BE87AC1943AAF2D8604F)Полное имя : M:\Diana.Our.Mother.Her.Life.and.Legacy.2017.1080p.AMZN.WEB-DL.DD+2.0.H.264.mkvФормат : MatroskaВерсия формата : Version 2Размер файла : 4,35 ГбайтПродолжительность : 1 ч. 8 м.Режим общего битрейта : ПеременныйОбщий поток : 9134 Кбит/секНазвание фильма : Диана, наша мама: ее жизнь и наследие / Diana, Our Mother: Her Life and Legacy (2017)Дата кодирования : UTC 2017-09-03 14:34:58Программа кодирования : mkvmerge v8.2.0 ('World of Adventure') 64bitБиблиотека кодирования : libebml v1.3.1 + libmatroska v1.4.2

ВидеоИдентификатор : 1Формат : AVCФормат/Информация : Advanced Video CodecПрофиль формата : High@L4Параметр CABAC формата : ДаПараметр ReFrames формата : 4 кадраИдентификатор кодека : V_MPEG4/ISO/AVCПродолжительность : 1 ч. 8 м.Вид битрейта : ПеременныйБитрейт : 8536 Кбит/секМаксимальный битрейт : 15,0 Мбит/секШирина : 1920 пикселейВысота : 1080 пикселейСоотношение сторон : 16:9Режим частоты кадров : ПостоянныйЧастота кадров : 23,976 (24000/1001) кадра/секЦветовое пространство : YUVСубдискретизация насыщенности : 4:2:0Битовая глубина : 8 битТип развёртки : ПрогрессивнаяБит/(Пиксели*Кадры) : 0.172Размер потока : 4,07 Гбайт (93%)Default : НетForced : НетЦветовой диапазон : LimitedОсновные цвета : BT.709Характеристики трансфера : BT.709Коэффициенты матрицы : BT.709

Аудио #1Идентификатор : 2Формат : AC-3Формат/Информация : Audio Coding 3Расширение режима : CM (complete main)Параметр Endianness формата : BigИдентификатор кодека : A_AC3Продолжительность : 1 ч. 8 м.Вид битрейта : ПостоянныйБитрейт : 192 Кбит/секКаналы : 2 каналаРасположение каналов : Front: L RЧастота : 48,0 КГцЧастота кадров : 31,250 кадров/сек (1536 spf)Метод сжатия : С потерямиЗадержка видео : 100 мс.Размер потока : 93,7 Мбайт (2%)Заголовок : Профессиональный (многоголосый закадровый) 1 каналЯзык : RussianDefault : ДаForced : Нет

Аудио #2Идентификатор : 3Формат : E-AC-3Формат/Информация : Audio Coding 3Параметр Endianness формата : BigИдентификатор кодека : A_EAC3Продолжительность : 1 ч. 8 м.Вид битрейта : ПостоянныйБитрейт : 224 Кбит/секКаналы : 2 каналаРасположение каналов : Front: L RЧастота : 48,0 КГцЧастота кадров : 187,500 кадров/сек (256 spf)Метод сжатия : С потерямиРазмер потока : 109 Мбайт (2%)Язык : EnglishDefault : НетForced : Нет

ТекстИдентификатор : 4Формат : UTF-8Идентификатор кодека : S_TEXT/UTF8Идентификатор кодека/Информация : UTF-8 Plain TextЯзык : EnglishDefault : НетForced : Нет


Трекер:  [ 09-Сен-2017 17:12 ]

  

Скачать .torrent

Размер .torrent файла 22 KB


Размер: 4.35 GB
Хэш (hash) релиза: dfc1abf4b6413116afb75be46582b6b4d9af7e47
Подписка на обновления:

Еще никто не оставлял запись к записи скачать торрент Диана, наша мама: ее жизнь и наследие Diana, Our Mother: Her Life and Legacy . Будь первым!

!Обратная связь