Скачать через торрент Возмездие Серии: 1-12 из 12 Фильм бесплатно в хорошем качестве torrent

Скачивайте на UnionPeer.org фильмы через торрент без регистрации. Новинки кино в хорошем качестве через торрент. На UnionPeer.org можно скачать через торрент фильмы 2014 и 2015 годов. Самые новые фильмы.

Скачать торрент Возмездие Серии: 1-12 из 12 бесплатно через .torrent фильм мультфильм сериал

Если у вас наблюдаются проблемы со скриншотами, переходом по ссылками, скачиванием торрентов - проблемы в блокировщике рекламы AdBlock. #хорошегоДня!


Статистика раздачи
Размер:  35.85 GB   |    Зарегистрирован:  2 месяца 14 дней   |    .torrent скачан:  34 раза   |   
Раздают:  1  
   
Загрузка...
 
Автор Сообщение

Galfimbul

avatar Galfimbul


Возмездие

Год выпуска: 2011
Производство: United Multimedia Projects
Жанр: драма, мистика
Продолжительность: ~00:56:00 серия
Субтитры: нет

Режиссёр: Богдан Дробязко, Кирилл Капица

В ролях: Григорий Антипенко, Наталия Антонова, Григорий Сиятвинда, Андрей Руденский, Екатерина Волкова (I), Борис Галкин, Кристина Пельц, Нодар Мгалоблишвили, Борис Бирман, Руслан Нанава, Борис Смолкин, Рудольф Фурманов, Владимир Чернышов, Людмила Ширяева, Дмитрий Сутырин, Екатерина Толубеева, Пётр Журавлёв (I), Владислав Лобанов, Мирослав Малич, Ольга Медынич, Марина Титова (II), Анна Арланова, Татьяна Ткач, Анатолий Петров, Евгения Игумнова, Артур Ваха, Андрей Астраханцев, Ируте Венгалите, Анна Дюкова, Анна Арефьева

Описание: Главный герой — Максим — преуспевающий питерский рекламщик. Он молод, хорош собой, счастливо женат и имеет маленькую дочку. Но однажды, возвращаясь с корпоративной вечеринки слегка навеселе, Максим сбивает черного пса, невесть откуда взявшегося посреди ночного шоссе, и, не справившись с управлением, вылетает с дороги и врезается в припаркованный на обочине фургон старой цыганки-гадалки Уаны. Придя в себя после аварии, Максим узнает, что цыганка погибла, его обвиняют в непреднамеренном убийстве, а следов черной собаки на дороге нет и в помине. Но странности на этом не заканчиваются. Максиму начинают сниться вещие сны, на которые он, до поры до времени, не обращает внимания.
Дорогой адвокат, предоставленный фирмой Максима, блестяще выигрывает процесс, но на выходе из здания суда Максим сталкивается со старым цыганом Алексианом, мужем погибшей гадалки. Алексиан рассказывает Максиму, что Уана была не просто гадалкой, но феей, спасавшей человеческие жизни, и теперь, в расплату за свое злодеяние, Максиму придется занять ее место, иначе будут гибнуть близкие ему люди.

Реклама: Нет.



Sample

Качество: HDTV 1080i
Формат: TS
Видео кодек: AVC
Аудио кодек: MP2
Видео: MPEG4 AVC Video, H264, 16:9, 1920x1080, 25 fps, ~7850 kbps
Аудио: MP2, 2 ch, 192 kbps, 16 bits, 48.0 KHz
ID : 1 (0x1)
Complete name : K:\Возмездие HDTV 1080i\Vozmezdie.01.2011.HDTV.1080i.ts
Format : MPEG-TS
File size : 3.32 GiB
Duration : 56mn 8s
Overall bit rate mode : Variable
Overall bit rate : 8 478 Kbps

Video
ID : 2311 (0x907)
Menu ID : 1084 (0x43C)
Format : AVC
Format/Info : Advanced Video Codec
Format profile : High@L4.0
Format settings, CABAC : Yes
Format settings, ReFrames : 4 frames
Codec ID : 27
Duration : 56mn 10s
Bit rate : 7 865 Kbps
Width : 1 920 pixels
Height : 1 080 pixels
Display aspect ratio : 16:9
Frame rate : 25.000 fps
Color space : YUV
Chroma subsampling : 4:2:0
Bit depth : 8 bits
Scan type : MBAFF
Bits/(Pixel*Frame) : 0.152
Stream size : 3.09 GiB (93%)

Audio
ID : 2312 (0x908)
Menu ID : 1084 (0x43C)
Format : MPEG Audio
Format version : Version 1
Format profile : Layer 2
Codec ID : 3
Duration : 56mn 10s
Bit rate mode : Constant
Bit rate : 192 Kbps
Channel count : 2 channels
Sampling rate : 48.0 KHz
Compression mode : Lossy
Stream size : 77.1 MiB (2%)
Language : Russian


Трекер:  [ 09-Сен-2017 15:18 ]

  

Скачать .torrent

Размер .torrent файла 180 KB


Размер: 35.85 GB
Хэш (hash) релиза: 9b0e78d77d99faecf29fc0a4eb84e941a073da6d
Подписка на обновления:

Еще никто не оставлял запись к записи скачать торрент Возмездие Серии: 1-12 из 12 . Будь первым!

!Обратная связь