Скачать через торрент Лобановский навсегда Lobanovskiy Forever Фильм бесплатно в хорошем качестве torrent

Скачивайте на UnionPeer.org фильмы через торрент без регистрации. Новинки кино в хорошем качестве через торрент. На UnionPeer.org можно скачать через торрент фильмы 2014 и 2015 годов. Самые новые фильмы.

Скачать торрент Лобановский навсегда Lobanovskiy Forever бесплатно через .torrent фильм мультфильм сериал

Если у вас наблюдаются проблемы со скриншотами, переходом по ссылками, скачиванием торрентов - проблемы в блокировщике рекламы AdBlock. #хорошегоДня!


Статистика раздачи
Размер:  3.42 GB   |    Зарегистрирован:  2 месяца 14 дней   |    .torrent скачан:  33 раза   |   
Раздают:  1  
   
Загрузка...
 
Автор Сообщение

Galfimbul

avatar Galfimbul


Лобановский навсегда | Lobanovskiy Forever«Let's start it all over from the beginning»

Год выпуска: 2016
Страна: Украина, Франция, Россия
Студия: Das Boot Production
Жанр: документальный, биография, спорт
Продолжительность: 01:33:28Перевод: Не требуется
Субтитры: русские (хардсаб, неотключаемые, на украинскую, французскую речи)

Режиссер: Антон Азаров / Anton Azarov
В ролях: Карло Анчелотти, Олег Блохин, Мишель Платини, Андрей Шевченко, Жак Ферран, Ринат Дасаев, Артем Франков, Леонид Кравчук, Алексей Михайличенко, Геннадий ОрловОписание: Документальный фильм о легендарном тренере киевского Динамо Валерии Васильевиче Лобановском, который впервые в истории советского спорта вывел свой клуб в гранды европейского футбола. Основу фильма составили отечественные и зарубежные архивные киноматериалы, а также оценки, суждения и воспоминания о Мэтре его современников - игроков, тренеров, журналистов, болельщиков.



Тип релиза: WEB-DL 1080p iTunes
Контейнер: MKV

Видео: MPEG-4 AVC / PAL 16:9 / 1920x1038 (1,85:1) / 5116 kbps / 25,000 fps / 0.103 bit/pixel / High@L4
Аудио: Multi (Rus, Ukr, Fre) | AAC-LC / 48 kHz / 2.0 Ch / 120 kbps / 24-bit
Формат субтитров: hardsub (неотключаемые)
Навигация по главам: есть
Куплено в iTunes на личные средства.
Общее
Уникальный идентификатор                 : 229970436232773638413347529958121071830 (0xAD02B1E802B0B035AFCAF0801AB0E4D6)
Полное имя                               : D:\Лобановский навсегда.2016.1080p.WEB-DL.x264.AAC.2.0.mkv
Формат                                   : Matroska
Версия формата                           : Version 4 / Version 2
Размер файла                             : 3,42 Гбайт
Продолжительность                        : 1 ч. 33 м.
Общий поток                              : 5238 Кбит/сек
Дата кодирования                         : UTC 2017-09-09 09:53:47
Программа кодирования                    : mkvmerge v15.0.0 ('Duel with the Devil') 64-bit
Библиотека кодирования                   : libebml v1.3.5 + libmatroska v1.4.5

Видео
Идентификатор                            : 1
Формат                                   : AVC
Формат/Информация                        : Advanced Video Codec
Профиль формата                          : High@L4
Параметр CABAC формата                   : Да
Параметр RefFrames формата               : 4 кадра
Идентификатор кодека                     : V_MPEG4/ISO/AVC
Продолжительность                        : 1 ч. 33 м.
Битрейт                                  : 5116 Кбит/сек
Ширина                                   : 1920 пикселей
Высота                                   : 1038 пикселей
Соотношение сторон                       : 1,85:1
Режим частоты кадров                     : Постоянный
Частота кадров                           : 25,000 кадров/сек
Цветовое пространство                    : YUV
Субдискретизация насыщенности            : 4:2:0
Битовая глубина                          : 8 бит
Тип развёртки                            : Прогрессивная
Бит/(Пиксели*Кадры)                      : 0.103
Размер потока                            : 3,34 Гбайт (98%)
Заголовок                                : iTunes
Язык                                     : Несколько языков
Default                                  : Да
Forced                                   : Нет
Цветовой диапазон                        : Limited
Основные цвета                           : BT.709
Характеристики трансфера                 : BT.709
Коэффициенты матрицы                     : BT.709

Аудио
Идентификатор                            : 2
Формат                                   : AAC
Формат/Информация                        : Advanced Audio Codec
Профиль формата                          : LC
Идентификатор кодека                     : A_AAC
Продолжительность                        : 1 ч. 33 м.
Битрейт                                  : 120 Кбит/сек
Каналы                                   : 2 канала
Расположение каналов                     : Front: L R
Частота                                  : 48,0 КГц
Частота кадров                           : 46,875 кадров/сек (1024 SPF)
Метод сжатия                             : С потерями
Размер потока                            : 79,9 Мбайт (2%)
Заголовок                                : Оригинал (русский, украинский, французский)
Язык                                     : Несколько языков
Default                                  : Да
Forced                                   : Нет

Меню
00:00:00.000                             : :Глава 1
00:05:51.760                             : :Глава 2
00:11:50.640                             : :Глава 3
00:18:41.920                             : :Глава 4
00:26:00.840                             : :Глава 5
00:32:44.800                             : :Глава 6
00:38:27.280                             : :Глава 7
00:44:00.640                             : :Глава 8
00:49:57.560                             : :Глава 9
00:56:40.400                             : :Глава 10
01:03:21.440                             : :Глава 11
01:08:31.840                             : :Глава 12
01:14:46.120                             : :Глава 13
01:20:06.920                             : :Глава 14
01:26:32.160                             : :Глава 15


Трекер:  [ 09-Сен-2017 14:12 ]

  

Скачать .torrent

Размер .torrent файла 17 KB


Размер: 3.42 GB
Хэш (hash) релиза: 00bac19007b852c9f7fe31f85979026248d1dae0
Подписка на обновления:

Еще никто не оставлял запись к записи скачать торрент Лобановский навсегда Lobanovskiy Forever . Будь первым!

!Обратная связь