Скачать через торрент Точки опоры Серии: 1-8 из 8 Фильм бесплатно в хорошем качестве torrent

Скачивайте на UnionPeer.org фильмы через торрент без регистрации. Новинки кино в хорошем качестве через торрент. На UnionPeer.org можно скачать через торрент фильмы 2014 и 2015 годов. Самые новые фильмы.

Скачать торрент Точки опоры Серии: 1-8 из 8 бесплатно через .torrent фильм мультфильм сериал

Если у вас наблюдаются проблемы со скриншотами, переходом по ссылками, скачиванием торрентов - проблемы в блокировщике рекламы AdBlock. #хорошегоДня!


Статистика раздачи
Размер:  9.53 GB   |    Зарегистрирован:  2 месяца 13 дней   |    .torrent скачан:  39 раз   |   
Раздают:  1  
   
Загрузка...
 
Автор Сообщение

Galfimbul

avatar Galfimbul


Точки опоры

Год выпуска: 2017
Производство: Компания "БФГ-Кино"
Жанр: детектив
Продолжительность: ~00:50:00 серия
Субтитры: нет

Режиссёр: Павел Снисаренко

В ролях: Александр Лазарев-мл, Станислав Дужников, Елена Захарова, Александр Адабашьян, Дмитрий Исаев, Анна Банщикова, Владимир Стержаков, Олег Фомин, Александр Рапопорт, Антон Макарский, Мария Горбань, Владимир Стеклов, Михаил Горский, Евгений Кулаков, Александр Пашутин, Сергей Варчук, Екатерина Архарова, Ольга Машная, Александра Назарова, Любовь Германова

Описание: Талантливый профессор физики Денис Негривецкий еще в институте придумал свой метод, который теперь успешно использует для расследования преступлений, - "метод лишней и недостающий детали". Профессор помогает своему давнему другу - районному прокурору Дмитрию Астрову. Астров - полная противоположность Негривецкому. Он практичный человек и семьянин. И хотя в молодости учился в Физтехе, в итоге выбрал своим призванием защиту закона

Реклама: Нет.



Sample

Качество: WEBRip 1080p
Формат: MKV
Видео кодек: H.264
Аудио кодек: AC3
Видео: MPEG4 AVC Video, H264, 16:9, 1920x1080, 25 fps, ~3200 kbps, 0.051 bit/pixel
Аудио: AC3 Dolby Digital, 44,1 kHz, 2/0 (L,R) ch, 192 kbps
General
Unique ID : 191486736137692814973977661068677680298 (0x900F01001E4CB9319A2F63E059170CAA)
Complete name : L:\Точки опоры\01.Tochki.opory.2016.WEB-DL.1080.Files-x.mkv
Format : Matroska
Format version : Version 4 / Version 2
File size : 1.33 GiB
Duration : 54mn 14s
Overall bit rate : 3 498 Kbps
Writing application : Lavf56.25.101
Writing library : Lavf56.25.101

Video
ID : 1
Format : AVC
Format/Info : Advanced Video Codec
Format profile : High@L4.0
Format settings, CABAC : Yes
Format settings, ReFrames : 2 frames
Codec ID : V_MPEG4/ISO/AVC
Duration : 54mn 14s
Bit rate : 3 237 Kbps
Width : 1 920 pixels
Height : 1 080 pixels
Display aspect ratio : 16:9
Frame rate mode : Constant
Frame rate : 25.000 fps
Color space : YUV
Chroma subsampling : 4:2:0
Bit depth : 8 bits
Scan type : Progressive
Bits/(Pixel*Frame) : 0.062
Stream size : 1.23 GiB (93%)
Default : Yes
Forced : No
Color primaries : BT.709
Transfer characteristics : BT.709
Matrix coefficients : BT.709

Audio
ID : 2
Format : AC-3
Format/Info : Audio Coding 3
Mode extension : CM (complete main)
Format settings, Endianness : Big
Codec ID : A_AC3
Duration : 54mn 14s
Bit rate mode : Constant
Bit rate : 192 Kbps
Channel count : 2 channels
Channel positions : Front: L R
Sampling rate : 44.1 KHz
Bit depth : 16 bits
Compression mode : Lossy
Delay relative to video : 1mn 5s
Stream size : 74.5 MiB (5%)
Default : Yes
Forced : No


Трекер:  [ 09-Сен-2017 13:18 ]

  

Скачать .torrent

Размер .torrent файла 48 KB


Размер: 9.53 GB
Хэш (hash) релиза: 7d362a0bac181c1f45a2a57a58e902c1f8560df3
Подписка на обновления:

Торренты, похожие на Точки опоры Серии: 1-8 из 8 скачать торрент

Форум Название Автор Размер S L Добавлен
Российские сериалы ·· Точки опоры / Серии: 1-2 из 8 (Павел Снисаренко) [2017,детектив, SATRip-AVC] Galfimbul 13097133021.22 GB 0 0 1502205649

18:20

8-Авг-17

Российские сериалы ·· Точки опоры / Серии: 1-2 из 8 (Павел Снисаренко) [2017, Детектив, мелодрама, WEBRip] Galfimbul 13600481281.27 GB 0 0 1502191268

14:21

8-Авг-17

Еще никто не оставлял запись к записи скачать торрент Точки опоры Серии: 1-8 из 8 . Будь первым!

!Обратная связь