Скачать порно через торрент Carolina - милые кудряшки UnionPeer.org бесплатно онлайн HD качество

Скачать новое порно 2015, 2014 новинки через торрент UnionPeer.org

Порно торрент бесплатно ЮнионПир.орг

Если у вас наблюдаются проблемы со скриншотами, переходом по ссылками, скачиванием торрентов - проблемы в блокировщике рекламы AdBlock. #хорошегоДня!


Статистика раздачи
Размер:  9.37 GB   |    Зарегистрирован:  2 месяца 12 дней   |    .torrent скачан:  977 раз   |   
Раздают:  4  
   
Загрузка...
 
Автор Сообщение

Galfimbul

avatar Galfimbul


Carolina - милые кудряшки (Amelia, Angela, Carolina Sweet, Caroline, Caroline E, Carolline, Frances, Lana, Nansy, Vasilisa)

Охваченный временной промежуток: 2015
Страна: РФ
Жанр: Straight, Teen, Hardcore, Oral

Тип ПАКа: В ПАКе меньше 15 роликов (MiniPack)
Количество роликов: 10

Описание: Волос кудрявых шёлковые пряди,
Что цвета самой чёрной черноты...
Я был готов их бесконечно гладить,
Расчёсывать, завязывать банты...

http://www.pornteengirl.com/model/caroline-3.html

Тип HD видео: 1080p
[18OnlyGirls.com] Cherry And Frances - Trick Or Treat
Тип потока: Видео
Длительность: 00:21:40
Кодек: AVC
Кодек/описание: Advanced Video Codec
Кодек/профиль: High@L4.0
Кодек/ID: avc1
Кодек/CABAC: Yes
Кодек/ReFrames: 2 frames
Размеры изображения: 1920 x 1080 (16:9)
Частота кадров: 23.976 fps
Частота кадров/тип: Variable
Размер потока: 700 MiB (97%)
Битрейт: 4 517 Kbps
Библиотека кодирования: x264 core 102 r1666 d058f37
Цветовое пространство: YUV
Тип развёртки: Progressive
Колориметрия: 4:2:0
Тип потока: Звук #1
Длительность: 00:21:40.063
Кодек: AAC
Кодек/описание: Advanced Audio Codec
Кодек/профиль: LC
Кодек/ID: 40

Имя файла: [18OnlyGirls.com] Frances - Bedside Manners.mp4
Формат файла: .mp4 (MPEG-4)
Размер файла: 746.41 MB
Длительность: 22mn 50s
Навигация по главам: Нет
Битрейт (все потоки): 4 569 Kbps
Тип битрейта (все потоки): Variable
Создан при помощи: Lavf56.40.101
Обложка: Отсутствует
Тип потока: Видео
Длительность: 00:22:50
Кодек: AVC
Кодек/описание: Advanced Video Codec
Кодек/профиль: High@L4.0
Кодек/ID: avc1
Кодек/CABAC: Yes
Кодек/ReFrames: 2 frames
Размеры изображения: 1920 x 1080 (16:9)
Частота кадров: 23.976 fps
Частота кадров/тип: Variable
Размер потока: 721 MiB (97%)
Битрейт: 4 412 Kbps
Библиотека кодирования: x264 core 102 r1666 d058f37
Цветовое пространство: YUV
Тип развёртки: Progressive
Колориметрия: 4:2:0
Тип потока: Звук #1
Длительность: 00:22:50.465
Кодек: AAC
Кодек/описание: Advanced Audio Codec
Кодек/профиль: LC
Кодек/ID: 40
Частота дискретизации: 44.1 KHz
Каналов: 2 channels
Битрейт: 151 Kbps
Битрейт/тип: Variable
Размер потока: 24.7 MiB (3%)
Метод сжатия: Lossy

[18OnlyGirls.com] Frances - Join Me For Free.mp4
Тип потока: Видео
Длительность: 00:23:50
Кодек: AVC
Кодек/описание: Advanced Video Codec
Кодек/профиль: High@L4.0
Кодек/ID: avc1
Кодек/CABAC: Yes
Кодек/ReFrames: 2 frames
Размеры изображения: 1920 x 1080 (16:9)
Частота кадров: 23.976 fps
Частота кадров/тип: Constant
Размер потока: 714 MiB (96%)
Битрейт: 4 187 Kbps
Библиотека кодирования: x264 core 102 r1666 d058f37
Цветовое пространство: YUV
Тип развёртки: Progressive
Колориметрия: 4:2:0
Тип потока: Звук #1
Длительность: 00:23:50.187
Кодек: AAC
Кодек/описание: Advanced Audio Codec
Кодек/профиль: LC
Кодек/ID: 40

[AllFineGirls.com] Frances & Kimberley - A Steamy Team .mp4
Тип потока: Видео
Длительность: 00:21:10
Кодек: AVC
Кодек/описание: Advanced Video Codec
Кодек/профиль: High@L4.0
Кодек/ID: avc1
Кодек/CABAC: Yes
Кодек/ReFrames: 4 frames
Размеры изображения: 1920 x 1080 (16:9)
Частота кадров: 23.976 fps
Частота кадров/тип: Constant
Размер потока: 1.18 GiB (98%)
Битрейт: 8 000 Kbps
Библиотека кодирования: x264 core 142 r2389 956c8d8
Цветовое пространство: YUV
Тип развёртки: Progressive
Колориметрия: 4:2:0
Глубина: 8 bits
Тип потока: Звук #1
Язык: Russian
Длительность: 00:21:10.314
Кодек: AAC
Кодек/описание: Advanced Audio Codec
Кодек/профиль: LC
Кодек/ID: 40

[DigitalDesire.com] Caroline & Sophia.mp4
Тип потока: Видео
Длительность: 00:22:23
Кодек: AVC
Кодек/описание: Advanced Video Codec
Кодек/профиль: High@L5.0
Кодек/ID: avc1
Кодек/CABAC: Yes
Кодек/ReFrames: 8 frames
Размеры изображения: 1920 x 1080 (16:9)
Частота кадров: 29.970 fps
Частота кадров/тип: Constant
Размер потока: 986 MiB (98%)
Битрейт: 6 144 Kbps
Библиотека кодирования: x264 core 148 r2579 73ae2d1
Цветовое пространство: YUV
Тип развёртки: Progressive
Колориметрия: 4:2:0
Глубина: 8 bits
Тип потока: Звук #1
Язык: English
Длительность: 00:22:23.902
Кодек: AAC
Кодек/описание: Advanced Audio Codec
Кодек/профиль: LC
Кодек/ID: 40

TeamSkeet.com] Caroline and Chloe - Euro Teen Threesome .mp4
Тип потока: Видео
Длительность: 00:24:06
Кодек: AVC
Кодек/описание: Advanced Video Codec
Кодек/профиль: Main@L4.0
Кодек/ID: avc1
Кодек/CABAC: Yes
Кодек/ReFrames: 4 frames
Размеры изображения: 1920 x 1080 (16:9)
Частота кадров: 23.976 fps
Частота кадров/тип: Variable
Размер потока: 2.01 GiB (99%)
Битрейт: 12.0 Mbps
Библиотека кодирования: x264 core 142 r2479 dd79a61
Цветовое пространство: YUV
Тип развёртки: Progressive
Колориметрия: 4:2:0
Глубина: 8 bits
Тип потока: Звук #1
Язык: English
Название: Stereo
Длительность: 00:24:06.443
Кодек: AAC
Кодек/описание: Advanced Audio Codec
Кодек/профиль: LC
Кодек/ID: 40

Название: [TheArtPorn.com] Mary Dee aka Grace C and Carolina Sweet aka Frances, Caroline - What''s Mine Is Yours
Тип потока: Видео
Длительность: 00:23:02
Кодек: AVC
Кодек/описание: Advanced Video Codec
Кодек/профиль: High@L5.0
Кодек/ID: avc1
Кодек/CABAC: Yes
Кодек/ReFrames: 5 frames
Размеры изображения: 1920 x 1080 (16:9)
Частота кадров: 23.976 fps
Частота кадров/тип: Constant
Размер потока: 494 MiB (95%)
Битрейт: 2 995 Kbps
Библиотека кодирования: x264 core 148 r2638 7599210
Цветовое пространство: YUV
Тип развёртки: Progressive
Колориметрия: 4:2:0
Тип потока: Звук #1
Длительность: 00:23:02.264
Кодек: AAC
Кодек/описание: Advanced Audio Codec
Кодек/профиль: LC
Кодек/ID: 40
Частота дискретизации: 44.1 KHz
Каналов: 2 channels
Битрейт: 160 Kbps
Битрейт/тип: Constant
Размер потока: 26.4 MiB (5%)
Метод сжатия: Lossy

Название: [TheArtPorn] Caroline (Ready or not, here I come
Тип потока: Видео
Длительность: 00:23:34
Кодек: AVC
Кодек/описание: Advanced Video Codec
Кодек/профиль: High@L5.0
Кодек/ID: avc1
Кодек/CABAC: Yes
Кодек/ReFrames: 5 frames
Размеры изображения: 1920 x 1080 (16:9)
Частота кадров: 23.976 fps
Частота кадров/тип: Constant
Размер потока: 492 MiB (95%)
Битрейт: 2 917 Kbps
Библиотека кодирования: x264 core 146 r2538 121396c
Цветовое пространство: YUV
Тип развёртки: Progressive
Колориметрия: 4:2:0
Тип потока: Звук #1
Длительность: 00:23:34.295
Кодек: AAC
Кодек/описание: Advanced Audio Codec
Кодек/профиль: LC
Кодек/ID: 40

Название: [TheArtPorn] Caroline (You look best undressed
Тип потока: Видео
Длительность: 00:23:57
Кодек: AVC
Кодек/описание: Advanced Video Codec
Кодек/профиль: High@L5.0
Кодек/ID: avc1
Кодек/CABAC: Yes
Кодек/ReFrames: 5 frames
Размеры изображения: 1920 x 1080 (16:9)
Частота кадров: 23.976 fps
Частота кадров/тип: Constant
Размер потока: 534 MiB (95%)
Битрейт: 3 118 Kbps
Библиотека кодирования: x264 core 146 r2538 121396c
Цветовое пространство: YUV
Тип развёртки: Progressive
Колориметрия: 4:2:0
Глубина: 8 bits
Тип потока: Звук #1
Длительность: 00:23:57.863
Кодек: AAC
Кодек/описание: Advanced Audio Codec
Кодек/профиль: LC
Кодек/ID: 40

[TrickyMasseur.com] Caroline
Тип потока: Видео
Длительность: 00:23:08
Кодек: AVC
Кодек/описание: Advanced Video Codec
Кодек/профиль: Main@L4.1
Кодек/ID: avc1
Кодек/CABAC: Yes
Кодек/ReFrames: 3 frames
Размеры изображения: 1920 x 1080 (16:9)
Частота кадров: 23.976 fps
Частота кадров/тип: Constant
Размер потока: 1.34 GiB (98%)
Битрейт: 8 319 Kbps
Битрейт/макс: 12.0 Mbps
Битрейт/тип: VBR
Стандарт: NTSC
Цветовое пространство: YUV
Тип развёртки: Progressive
Колориметрия: 4:2:0
Глубина: 8 bits
Тип потока: Звук #1
Язык: English
Длительность: 00:23:08.262
Кодек: AAC
Кодек/описание: Advanced Audio Codec
Кодек/профиль: LC
Кодек/ID: 40


Трекер:  [ 09-Сен-2017 10:30 ]

  

Скачать .torrent

Размер .torrent файла 49 KB


Размер: 9.37 GB
Хэш (hash) релиза: e054b16af2812733002b9b2d2bd6d9e863cbf30d

Еще никто не оставлял запись к записи скачать торрент Carolina - милые кудряшки . Будь первым!

!Обратная связь