Скачать через торрент А в России опять окаянные дни Фильм бесплатно в хорошем качестве torrent

Скачивайте на UnionPeer.org фильмы через торрент без регистрации. Новинки кино в хорошем качестве через торрент. На UnionPeer.org можно скачать через торрент фильмы 2014 и 2015 годов. Самые новые фильмы.

Скачать торрент А в России опять окаянные дни бесплатно через .torrent фильм мультфильм сериал

Если у вас наблюдаются проблемы со скриншотами, переходом по ссылками, скачиванием торрентов - проблемы в блокировщике рекламы AdBlock. #хорошегоДня!


Статистика раздачи
Размер:  1.46 GB   |    Зарегистрирован:  2 месяца 16 дней   |    .torrent скачан:  10 раз   |   
Раздают:  1  
   
Загрузка...
 
Автор Сообщение

Galfimbul

avatar Galfimbul


А в России опять окаянные дни

Жанр: драма
Год выпуска: 1990
Продолжительность: 02:02:31

Режиссёр: Владимир Васильков

В ролях: Татьяна Ипатова — Сашка Бурдина
Евгений Белоногов — Вадим Воинов
Михаил Боровков — Виктор Бурдин
Михаил Иванов — Бурдин в старости
Галина Доля — Роза
Геннадий Венгеров — Бабаханов
Сергей Малёнов — "Одесса"
Юрий Митрофанов — начальник тройки ОСО
Сергей Друзьяк, Николай Волошин, Надежда Евдокимова , Сергей Чернов, Ируте Венгалите, Виктор Саракваша, Иван Морозов, Леонид Трушко, Виктор Евграфов, Сергей Белякович, Ольга Прокофьева, Михаил Левкоев, Алексей Аблепихин, Анатолий Мамбетов

Описание: Виктор Бурдин родился в одном из сталинских лагерей. Теперь он живёт в столице, но, попав на Урал к деду, узнаёт, что тот служил начальником как раз того самого лагеря, где и родился Виктор. Мать Виктора, вопреки воле отца-начальника, связала свою судьбу с политзаключенным. И теперь Бурдин-младший пытается узнать правду о гибели посмертно реабилитированного отца...

Доп. информация: Оцифровка VHS (личный архив) и получение VHSRip alenavova

Эксклюзив для rutracker.org. При размещении данного релиза на других сайтах ссылка на автора alenavova обязательна.

Релиз

Сэмпл: https://yadi.sk/i/iTbPxtRG3MjcMr

Качество видео: VHSRip
Формат видео: AVI

Видео: 704x528 (1.33:1), 25 fps, XviD build 73 ~1509 kbps avg, 0.16 bit/pixel
Аудио: 48 kHz, AC3 Dolby Digital, 2/0 (L,R) ch, ~192 kbps
А в России опять окоянные дни [by alenavova].avi
Format : AVI
Format/Info : Audio Video Interleave
File size : 1.46 GiB
Duration : 2 h 2 min
Overall bit rate : 1 711 kb/s
Movie name : А в России опять окоянные дни [by alenavova]
Director : by alenavova
Writing application : VirtualDubMod 1.5.10.3 | www.virtualdub-fr.org || (build 2550/release)
Copyright : Edich2
Comment : RuTracker.org

Video
ID : 0
Format : MPEG-4 Visual
Format profile : Advanced Simple@L5
Format settings, BVOP : 2
Format settings, QPel : No
Format settings, GMC : No warppoints
Format settings, Matrix : Custom
Codec ID : XVID
Codec ID/Hint : XviD
Duration : 2 h 2 min
Bit rate : 1 509 kb/s
Width : 704 pixels
Height : 528 pixels
Display aspect ratio : 4:3
Frame rate : 25.000 FPS
Color space : YUV
Chroma subsampling : 4:2:0
Bit depth : 8 bits
Scan type : Progressive
Compression mode : Lossy
Bits/(Pixel*Frame) : 0.162
Stream size : 1.29 GiB (88%)
Writing library : XviD 73

Audio
ID : 1
Format : AC-3
Format/Info : Audio Coding 3
Format settings, Endianness : Big
Codec ID : 2000
Duration : 2 h 2 min
Bit rate mode : Constant
Bit rate : 192 kb/s
Channel(s) : 2 channels
Channel positions : Front: L R
Sampling rate : 48.0 kHz
Frame rate : 31.250 FPS (1536 spf)
Bit depth : 16 bits
Compression mode : Lossy
Stream size : 168 MiB (11%)
Alignment : Split accross interleaves
Interleave, duration : 40 ms (1.00 video frame)
Interleave, preload duratio : 500 ms
Service kind : Complete Main


Трекер:  [ 09-Сен-2017 10:24 ]

  

Скачать .torrent

Размер .torrent файла 15 KB


Размер: 1.46 GB
Хэш (hash) релиза: a91a9b97caa5d2f798041a89e9dfcc1d2f95a83c
Подписка на обновления:

Еще никто не оставлял запись к записи скачать торрент А в России опять окаянные дни . Будь первым!

!Обратная связь