Скачать через торрент Бэтмен и Харли Квинн Batman and Harley Quinn Фильм бесплатно в хорошем качестве torrent

Скачивайте на UnionPeer.org фильмы через торрент без регистрации. Новинки кино в хорошем качестве через торрент. На UnionPeer.org можно скачать через торрент фильмы 2014 и 2015 годов. Самые новые фильмы.

Скачать торрент Бэтмен и Харли Квинн Batman and Harley Quinn бесплатно через .torrent фильм мультфильм сериал

Если у вас наблюдаются проблемы со скриншотами, переходом по ссылками, скачиванием торрентов - проблемы в блокировщике рекламы AdBlock. #хорошегоДня!


Статистика раздачи
Размер:  2.42 GB   |    Зарегистрирован:  16 дней   |    .torrent скачан:  13 раз   |   
Раздают:  1  
   
Загрузка...
 
Автор Сообщение

Galfimbul

avatar Galfimbul


Бэтмен и Харли Квинн / Batman and Harley Quinn

Страна: США
Жанр: фантастика, фэнтези, боевик, комедия, приключения
Продолжительность: 01:14:16
Год выпуска: 2017
Перевод: Любительский (многоголосый закадровый)
Русские субтитры: нет

Режиссёр: Сэм Лью
Роли озвучивали: Пэйджет Брюстер, Джон Димаджио, Кевин Конрой, Кевин Майкл Ричардсон, Минди Стерлинг

Описание: В фильме рассказывается история о странных взаимоотношениях между Бэтменом и бывшей подружкой Джокера Харли Квинна. Злодейка влюбляется в Бэтмена, но свою любовь девушка проявляет странным образом. В то время как супер-герой помогает людям, спасая их жизни, Харли всячески ему мешает, постоянно создавая трудности. Бэтмен постоянно злится и отвечает резкими нападками против злодейки, но ничего не может поделать. В конце концов, Харли удается схватить и отправить на лечение в психбольницу для особо тяжелых клиентов, заодно немного успокоится.
Вскоре Харли вырывается на свободу совсем иным человеком. Девушка становится на сторону добра и выявляет желание помогать Бэтмену, которому сейчас просто необходима помощь, так как предстоит остановить надвигающуюся катастрофу, которую создали Доктор Джейсон Вудроу и Ядовитый Плющ. Угроза состоит в превращении людей в растения. Этого нельзя допустить, поэтому герои сплотятся, и будут бороться против заклятых врагов, чтобы освободить человечество от смертельной опасности.

Дополнительная информация: Релиз от ZM-SHOW
Семпл: http://sendfile.su/1360585

Качество: WEB-DL 720p
Формат: MKV
Видео: h264, 1280x720, 23,976 fps, 3989 kb/s
Аудио: Русский: AC-3, 48,0 KHz, 2 ch, 192 kbps
Аудио 2: English: AC-3, 48,0 Hz, 6 ch, 384 kbps
Субтитры: отсутствуют
ОбщееУникальный идентификатор : 206778026332009802699691861679393057996 (0x9B8FFFD08369F4749703975BAA39ACCC)Полное имя : F:\Batman and Harley Quinn [WEB-DL_720P] [2017].mkvФормат : MatroskaВерсия формата : Version 1Размер файла : 2,42 ГбайтПродолжительность : 1 ч. 14 м.Общий поток : 4658 Кбит/секДата кодирования : UTC 2017-09-08 19:55:07Программа кодирования : mkvmerge v2.4.2 ('Oh My God') built on Jan 18 2009 17:30:28Библиотека кодирования : libebml v0.7.7 + libmatroska v0.8.1

ВидеоИдентификатор : 1Формат : AVCФормат/Информация : Advanced Video CodecПрофиль формата : High@L3.1Параметр CABAC формата : НетПараметр RefFrames формата : 2 кадраИдентификатор кодека : V_MPEG4/ISO/AVCПродолжительность : 1 ч. 14 м.Битрейт : 3989 Кбит/секШирина : 1280 пикселейВысота : 718 пикселейСоотношение сторон : 16:9Режим частоты кадров : ПостоянныйЧастота кадров : 24,000 кадра/секЦветовое пространство : YUVСубдискретизация насыщенности : 4:2:0Битовая глубина : 8 битТип развёртки : ПрогрессивнаяБит/(Пиксели*Кадры) : 0.181Размер потока : 2,07 Гбайт (86%)Язык : EnglishDefault : ДаForced : НетЦветовой диапазон : LimitedОсновные цвета : BT.709Характеристики трансфера : BT.709Коэффициенты матрицы : BT.709Statistics Tags Issue : mkvmerge v15.0.0 ('Duel with the Devil') 64-bit 2017-09-08 19:40:03 / mkvmerge v2.4.2 ('Oh My God') built on Jan 18 2009 17:30:28 2017-09-08 19:55:07FromStats_BitRate : 4078460FromStats_Duration : 01:14:16.202000000FromStats_FrameCount : 106842FromStats_StreamSize : 2271805405

Аудио #1Идентификатор : 2Формат : AC-3Формат/Информация : Audio Coding 3Параметр Endianness формата : BigИдентификатор кодека : A_AC3Продолжительность : 1 ч. 14 м.Вид битрейта : ПостоянныйБитрейт : 192 Кбит/секКаналы : 2 каналаРасположение каналов : Front: L RЧастота : 48,0 КГцЧастота кадров : 31,250 кадров/сек (1536 SPF)Битовая глубина : 16 битМетод сжатия : С потерямиРазмер потока : 102 Мбайт (4%)Заголовок : ZM-SHOWЯзык : RussianServiceKind/String : Complete MainDefault : ДаForced : НетStatistics Tags Issue : mkvmerge v15.0.0 ('Duel with the Devil') 64-bit 2017-09-08 19:40:03 / mkvmerge v2.4.2 ('Oh My God') built on Jan 18 2009 17:30:28 2017-09-08 19:55:07FromStats_BitRate : 192000FromStats_Duration : 01:14:16.192000000FromStats_FrameCount : 139256FromStats_StreamSize : 106948608

Аудио #2Идентификатор : 3Формат : AC-3Формат/Информация : Audio Coding 3Параметр Endianness формата : BigИдентификатор кодека : A_AC3Продолжительность : 1 ч. 14 м.Вид битрейта : ПостоянныйБитрейт : 384 Кбит/секКаналы : 6 каналовРасположение каналов : Front: L C R, Side: L R, LFEЧастота : 48,0 КГцЧастота кадров : 31,250 кадров/сек (1536 SPF)Битовая глубина : 16 битМетод сжатия : С потерямиРазмер потока : 204 Мбайт (8%)Язык : EnglishServiceKind/String : Complete MainDefault : НетForced : НетStatistics Tags Issue : mkvmerge v15.0.0 ('Duel with the Devil') 64-bit 2017-09-08 19:40:03 / mkvmerge v2.4.2 ('Oh My God') built on Jan 18 2009 17:30:28 2017-09-08 19:55:07FromStats_BitRate : 384000FromStats_Duration : 01:14:11.232000000FromStats_FrameCount : 139101FromStats_StreamSize : 213659136

Меню00:00:00.000 : en:100:10:05.000 : en:200:20:53.000 : en:300:30:55.000 : en:400:42:53.000 : en:500:51:58.000 : en:601:02:34.000 : en:7


Трекер:  [ 09-Сен-2017 10:06 ]

  

Скачать .torrent

Размер .torrent файла 12 KB


Размер: 2.42 GB
Хэш (hash) релиза: 16dab42dd0e9d333835ade77441a82794ad5e269
Подписка на обновления:

Торренты, похожие на Бэтмен и Харли Квинн Batman and Harley Quinn скачать торрент

Форум Название Автор Размер S L Добавлен
Мультфильмы до 2016 ·· Бэтмен и Харли Квинн / Batman and Harley Quinn (Сэм Лью / Sam Liu) [2017, США, фантастика, фэнтези, боевик, комедия, приключения, Blu-ray disc] MVO(Saint-Sound TV) + Rus Sub(Песни) Galfimbul 48015854294.47 GB 0 0 1505419590

23:06

14-Сен-17

Мультфильмы до 2016 ·· Бэтмен и Харли Квинн / Batman and Harley Quinn (Сэм Лью / Sam Liu) [2017, США, фантастика, фэнтези, боевик, комедия, приключения, BDRip 1080p] MVO (GoASound) + Rus, Eng Sub Galfimbul 50547096574.71 GB 0 0 1505158675

22:37

11-Сен-17

Мультфильмы до 2016 ·· Бэтмен и Харли Квинн / Batman and Harley Quinn (Сэм Лью / Sam Liu) [2017, США, фантастика, фэнтези, боевик, комедия, приключения, BDRip 720p] MVO (GoASound) + Rus, Eng Sub Galfimbul 27049871852.52 GB 1 1 1505156805

22:06

11-Сен-17

Мультфильмы до 2016 ·· Бэтмен и Харли Квинн / Batman and Harley Quinn (Сэм Лью) [2017, США, фантастика, фэнтези, боевик, комедия, приключения, WEB-DLRip] MVO Galfimbul 13864202241.29 GB 0 0 1503247000

19:36

20-Авг-17

Еще никто не оставлял запись к записи скачать торрент Бэтмен и Харли Квинн Batman and Harley Quinn . Будь первым!

!Обратная связь