Скачать через торрент Откажись от своих грехов Give up yer aul sins Фильм бесплатно в хорошем качестве torrent

Скачивайте на UnionPeer.org фильмы через торрент без регистрации. Новинки кино в хорошем качестве через торрент. На UnionPeer.org можно скачать через торрент фильмы 2014 и 2015 годов. Самые новые фильмы.

Скачать торрент Откажись от своих грехов Give up yer aul sins бесплатно через .torrent фильм мультфильм сериал

Если у вас наблюдаются проблемы со скриншотами, переходом по ссылками, скачиванием торрентов - проблемы в блокировщике рекламы AdBlock. #хорошегоДня!


Статистика раздачи
Размер:  52 MB   |    Зарегистрирован:  2 месяца 16 дней   |    .torrent скачан:  5 раз   |   
Раздают:  1  
   
Загрузка...
 
Автор Сообщение

Galfimbul

avatar Galfimbul


Откажись от своих грехов / Give up yer aul sins

Страна: Ирландия
Жанр: мультфильм
Продолжительность: 00:04:19
Год выпуска: 2001
Перевод: субтитры (alex.n42)
Русские субтитры: есть

Режиссёр: Каталь Гаффни / Cathal Gaffney

Описание: На уроке богословия телевизионная группа снимает рассказ девочки про Иоанна Крестителя и Саломею.
В основе фильма реальная аудиозапись рассказа ученицы, сделанная в Дублинской школе в 1960-ых годах.

Доп. информация: Nomination for "Oscar" (2002)
National Jury Award, Jameson Short Film Award - Cork International Film Festival (2002)
IFTA Award for Best Animation - Irish Film and Television Awards (2003)

Качество: WEBRip
Формат: AVI
Видео: 1543 kbps, 624х464 (4:3), 25.000 fps, MPEG-4 Visual (XviD)
Аудио: 128 kbps, 44.1 kHz, 2 channels, MPEG Audio (MP3)
Субтитры: softsub (SRT)
GeneralComplete name : Give Up Yer Aul Sins (2001).aviFormat : AVIFormat/Info : Audio Video InterleaveFile size : 52.0 MiBDuration : 4mn 19sOverall bit rate : 1 683 KbpsWriting application : Lavf55.19.104Writing library : VirtualDub build 35491/release

VideoID : 0Format : MPEG-4 VisualFormat profile : Advanced Simple@L5Format settings, BVOP : 2Format settings, QPel : NoFormat settings, GMC : No warppointsFormat settings, Matrix : Default (H.263)Codec ID : XVIDCodec ID/Hint : XviDDuration : 4mn 19sBit rate : 1 543 KbpsWidth : 624 pixelsHeight : 464 pixelsDisplay aspect ratio : 4:3Frame rate : 25.000 fpsColor space : YUVChroma subsampling : 4:2:0Bit depth : 8 bitsScan type : ProgressiveCompression mode : LossyBits/(Pixel*Frame) : 0.213Stream size : 47.6 MiB (92%)Writing library : XviD 73

AudioID : 1Format : MPEG AudioFormat version : Version 1Format profile : Layer 3Mode : Joint stereoMode extension : MS StereoCodec ID : 55Codec ID/Hint : MP3Duration : 4mn 19sBit rate mode : ConstantBit rate : 128 KbpsChannel(s) : 2 channelsSampling rate : 44.1 KHzCompression mode : LossyStream size : 3.95 MiB (8%)Alignment : Aligned on interleavesInterleave, duration : 26 ms (0.65 video frame)Interleave, preload duration : 522 msWriting library : LAME3.99.5
1
00:00:05,660 --> 00:00:07,940
Ладно, дети. Успокойтесь.

2
00:00:10,090 --> 00:00:12,430
Знаете, кто придёт к нам
в школу сегодня?

3
00:00:12,440 --> 00:00:14,450
[Дети]: Люди из телика!

4
00:00:14,460 --> 00:00:18,400
Правильно, люди с телевидения!

5
00:00:19,360 --> 00:00:22,000
Итак, я хочу, чтобы
вы все вели себя хорошо.

6
00:00:22,480 --> 00:00:25,300
Если вы готовы, вы сможете
рассказать ваши пересказы Библии.

7
00:00:25,330 --> 00:00:27,530
Итак, кто хочет быть первым?

8
00:00:27,540 --> 00:00:29,580
[Дети]: Я! Я! Я! Я! Я!

9
00:00:29,580 --> 00:00:33,160
Хорошо-хорошо.
Мэри! Ты будешь первой.

10
00:00:34,200 --> 00:00:36,640
Я хочу, чтобы ты рассказала нам
историю Иоанна Крестителя.

11
00:00:38,340 --> 00:00:41,900
Вот они уже приехали.
Теперь тихо все.

12
00:00:43,010 --> 00:00:44,620
Сидите тише,
и у всех будет свой шанс.

13
00:00:45,730 --> 00:00:47,050
Начинай, Мэри...

14
00:00:48,650 --> 00:00:51,740
Он жил в пустыне, и все
называли его Иоанн Креститель,

15
00:00:51,740 --> 00:00:54,920
потому что он ходил всюду,
проповедовал всем,

16
00:00:54,930 --> 00:00:57,740
крестил всех взрослых и детей,
и всех.


Трекер:  [ 09-Сен-2017 05:36 ]

  

Скачать .torrent

Размер .torrent файла 17 KB


Размер: 52 MB
Хэш (hash) релиза: 9095eeac7696de6fde68a69e9e62079ada567145
Подписка на обновления:

Еще никто не оставлял запись к записи скачать торрент Откажись от своих грехов Give up yer aul sins . Будь первым!

!Обратная связь