Скачать через торрент Гаванская сюита Фильм бесплатно в хорошем качестве torrent

Скачивайте на UnionPeer.org фильмы через торрент без регистрации. Новинки кино в хорошем качестве через торрент. На UnionPeer.org можно скачать через торрент фильмы 2014 и 2015 годов. Самые новые фильмы.

Скачать торрент Гаванская сюита бесплатно через .torrent фильм мультфильм сериал

Если у вас наблюдаются проблемы со скриншотами, переходом по ссылками, скачиванием торрентов - проблемы в блокировщике рекламы AdBlock. #хорошегоДня!


Статистика раздачи
Размер:  701 MB   |    Зарегистрирован:  2 месяца 16 дней   |    .torrent скачан:  6 раз   |   
Раздают:  1  
   
Загрузка...
 
Автор Сообщение

Galfimbul

avatar Galfimbul


Гаванская сюита (Suite Habana) / Suite Habana

[img=right:kFYWPUTqqs]
Warning: copy(http://i1.fastpic.ru/big/2010/0117/22/7e2e91b5db4a1...040395f2a522.jpg): failed to open stream: HTTP request failed! in /home/youpic/public_html/poster_overflow.php on line 30
http://s010.youpic.su/pictures/1504821600/9cec51d3c.../img:kFYWPUTqqs]Год выпуска: 2003
Страна: Куба
Жанр: документальный
Продолжительность: 1:22:32
Перевод: не требуется
Русские субтитры: нет

Режиссёр: Фернандо Перез

В ролях: Аманда Готье, Francisco Cardet

Саундтрек: Ernesto Cisneros, Edesio Alejandro
Оператор: Raúl Pérez Ureta
Продюссеры: Камило Вайвз, Ricardo Evole, Ана Лаура Диаз, Хосе Мария Моралес, Serafín Méndez, Франциско Нельсон Мир

Описание: Каждый день в Гаване необычен сам по себе. Гавана похожа на большую мозаику из традиций и ритмов, надежд и разочарований своих жителей. В фильме многоликий и многоголосый город предстаёт перед нами в утренней прохладе, под палящими лучами дневного солнца и в вечернем зное.

Режиссёром с документальной беспристрастностью и в монтажном нарративе (без диалогов, без закадрового голоса) показан один день десяти молодых и старых habaneros — в труде, рутинных занятиях, мечтаниях — в биоритме городского движения.

Фильм имеет в своем багаже гран-при приз за лучшую режиссуру ФИПРЕССИ, приз жюри на МКФ в Триесте (Италия) и другие награды.

Качество: DVDRip
Формат: AVI
Видео: DivX, 480x352 (1.36:1), 25 fps, 921 kbps
Аудио: AC3, 48 kHz, 256 kbps, 6 ch (Front: L C R, Side: L R, LFE)
Общее
Полное имя : CINE CUBANO - Suite Habana (2003).avi
Формат : AVI
Формат/Информация : Audio Video Interleave
Размер файла : 701 Мбайт
Продолжительность : 1 ч. 22 м.
Общий поток : 1187 Кбит/сек
Программа кодирования : VirtualDubMod 1.5.10.1 (build 2366/release)
Библиотека кодирования : VirtualDubMod build 2366/release

Видео
Идентификатор : 0
Формат : MPEG-4 Visual
Параметр BVOP формата : 1
Параметр QPel формата : Нет
Параметр GMC формата : Без точки перехода
Параметр матрицы формата : Default (H.263)
Режим смешивания : Сжатый битовый поток
Идентификатор кодека : DX50
Идентификатор кодека/Подсказка : DivX 5
Продолжительность : 1 ч. 22 м.
Битрейт : 921 Кбит/сек
Ширина : 480 пикселей
Высота : 352 пикселя
Соотношение сторон : 4:3
Частота кадров : 25,000 кадров/сек
Цветовое пространство : YUV
Субдискретизация насыщенности : 4:2:0
Битовая глубина : 8 бит
Тип развёртки : Прогрессивная
Метод сжатия : С потерями
Бит/(Пиксели*Кадры) : 0.218
Размер потока : 544 Мбайт (78%)
Библиотека кодирования : DivX 5.1.1 (Maupiti) (UTC 2003-11-19)

Аудио
Идентификатор : 1
Формат : AC-3
Формат/Информация : Audio Coding 3
Расширение режима : CM (complete main)
Параметр Endianness формата : Big
Идентификатор кодека : 2000
Продолжительность : 1 ч. 22 м.
Вид битрейта : Постоянный
Битрейт : 256 Кбит/сек
Каналы : 6 каналов
Расположение каналов : Front: L C R, Side: L R, LFE
Частота : 48,0 КГц
Битовая глубина : 16 бит
Метод сжатия : С потерями
Размер потока : 151 Мбайт (22%)
Выравнивание : Разделение по промежуткам
Продолжительность промежутка : 40 мс. (1,00 видеокадр)
Время предзагрузки промежутка : 500 мс.
<img class="smile" src="//static.t-ru.org/smiles/icon_exclaim.gif" alt=""> Внимание! Торрент-файл перезалит 08.09.2017 без изменения содержимого раздачи в связи с просьбой администрации снять флаг «приватная раздача». Скачавшим ранее просьба перекачать торрент-файл, перехешировать содержимое и присоединиться к раздаче.

Трекер:  [ 08-Сен-2017 23:12 ]

  

Скачать .torrent

Размер .torrent файла 14 KB


Размер: 701 MB
Хэш (hash) релиза: 58ba89826e324ee9ac68343cbe8e23f99a6885e9
Подписка на обновления:

Еще никто не оставлял запись к записи скачать торрент Гаванская сюита . Будь первым!

!Обратная связь