Скачать через торрент [ATV3] Графомафия бесплатно русская версия torrent активатор

Если у вас наблюдаются проблемы со скриншотами, переходом по ссылками, скачиванием торрентов - проблемы в блокировщике рекламы AdBlock. #хорошегоДня!


Статистика раздачи
Размер:  3.46 GB   |    Зарегистрирован:  16 дней   |    .torrent скачан:  2 раза   |   
Раздают:  1  
   
Загрузка...
 
Автор Сообщение

Galfimbul

avatar Galfimbul


Графомафия /
«Цена успеха»

/ 10 / 10
Год выпуска: 2017
Страна: Россия
Жанр: Kомедия
Продолжительность: 01:33:36

Перевод: Не требуется
Оригинальная аудиодорожка: Есть
Cубтитры: Нет
Режиссёр: Эдуард Радзюкевич
Сценарий: Владимир Зайкин, Эдуард Радзюкевич, Сергей Плотов
Продюсер: Марианна Балашова, Андрей Девяткин, Владимир Муров
Оператор: Андрей Макаров
Композитор: Иван Замотаев, Иван Бурляев
Художник: Александр Харин, Татьяна Сударьянто
В ролях: Гоша Куценко, Даниил Спиваковский, Станислав Дужников, Эдуард Радзюкевич, Юрий Стоянов, Дарья Екамасова, Маргарита Шубина, Аристарх Венес, Дарья Мороз, Владимир Епифанцев

Бюджет: $1 200 000
Сборы в России: $3 648

Премьера (РФ): 17 августа 2017

Описание: Успешный издатель Надежда Павловна нанимает мечтающих о славе графоманов, чтобы убить талантливого писателя и присвоить его роман, который принесет славу ее обожаемому сыну. Но Шурок равнодушен и к славе, и к литературе. Он любит дорогие машины и красивых девушек. Банда графоманов с энтузиазмом берется за дело. Ведь цена успеха — издание их творений. Но, оказывается, применять кровавые методы в жизни намного сложнее, чем в написании триллера. У каждого свое представление об успехе и счастье. Для одних это встреча с возлюбленным, для других — популярность в соцсетях, а для кого-то предел мечтаний увидеть свое имя на книжной обложке.Качество исходника: WEB-DL 1080p (NNMClub)
Качество: WEB-DL
Тип: HD (1080p)
Контейнер: M4V
Видео: H.264, 1920x806, 2.40:1, 4 748 Kbps, 25.000 fps

Аудио 1: Русский/Оригинальная дорожка , AAC / 2.0 / 160 Kbps / 48.0 KHz
Аудио 2: Русский/Оригинальная дорожка , AC-3 / 5.1 / 384 Kbps / 48.0 KHz
Sort Name: Графомафия
XID: Apple:vendor_id:2017-915329
contentID: 915329
Screenwriters: Владимир Зайкин, Эдуард Радзюкевич, Сергей Плотов
Producers: Марианна Балашова, Андрей Девяткин, Владимир Муров
Director: Владимир Зайкин, Эдуард Радзюкевич
Cast: Гоша Куценко, Даниил Спиваковский, Станислав Дужников, Эдуард Радзюкевич, Юрий Стоянов, Дарья Екамасова, Маргарита Шубина, Аристарх Венес, Дарья Мороз, Владимир Епифанцев
Studio: Студия Крылья
Long Description: Успешный издатель Надежда Павловна нанимает мечтающих о славе графоманов, чтобы убить талантливого писателя и присвоить его роман, который принесет славу ее обожаемому сыну. Но Шурок равнодушен и к славе, и к литературе. Он любит дорогие машины и красивых девушек. Банда графоманов с энтузиазмом берется за дело. Ведь цена успеха - издание их творений. Но, оказывается, применять кровавые методы в жизни намного сложнее, чем в написании триллера. У каждого свое представление об успехе и счастье. Для одних это встреча с возлюбленным, для других - популярность в соцсетях, а для кого-то предел мечтаний увидеть свое имя на книжной обложке.
Description: Успешный издатель Надежда Павловна нанимает мечтающих о славе графоманов, чтобы убить талантливого писателя и присвоить его роман, который принесет славу ее обожаемому сыну. Но Шурок равнодушен и к славе, и к литературе. Он любит дорогие машины и красивых девушек.
Release Date: 2017-01-01T08:00:00Z
Artist: Владимир Зайкин, Эдуард Радзюкевич
Name: Графомафия
General
Complete name : /Users/imac/HandBrake/Grafomafiya..WEB-DL.1080p.m4v
Format : MPEG-4
Codec ID : M4V
File size : 3.46 GiB
Duration : 1h 33mn
Overall bit rate mode : Variable
Overall bit rate : 5 296 Kbps
Movie name : Графомафия
Performer : Владимир Зайкин, Эдуард Радзюкевич
Director : Владимир Зайкин / Эдуард Радзюкевич
Actor : Гоша Куценко / Даниил Спиваковский / Станислав Дужников / Эдуард Радзюкевич / Юрий Стоянов / Дарья Екамасова / Маргарита Шубина / Аристарх Венес / Дарья Мороз / Владимир Епифанцев
Screenplay by : Владимир Зайкин / Эдуард Радзюкевич / Сергей Плотов
Producer : Марианна Балашова / Андрей Девяткин / Владимир Муров
Production studio : Студия Крылья
ContentType : Short Film
Description : Успешный издатель Надежда Павловна нанимает мечтающих о славе графоманов, чтобы убить талантливого писателя и присвоить его роман, который принесет славу ее обожаемому сыну. Но Шурок равнодушен и к славе, и к литературе. Он любит дорогие машины и красивых девушек.
Recorded date : UTC 2017-01-01 08:00:00
Encoded date : UTC 2017-09-08 17:15:32
Tagged date : UTC 2017-09-08 17:22:42
Cover : Yes
Rating : None
Title/Sort : Графомафия
LongDescription : Успешный издатель Надежда Павловна нанимает мечтающих о славе графоманов, чтобы убить талантливого писателя и присвоить его роман, который принесет славу ее обожаемому сыну. Но Шурок равнодушен и к славе, и к литературе. Он любит дорогие машины и красивых девушек. Банда графоманов с энтузиазмом берется за дело. Ведь цена успеха - издание их творений. Но, оказывается, применять кровавые методы в жизни намного сложнее, чем в написании триллера. У каждого свое представление об успехе и счастье. Для одних это встреча с возлюбленным, для других - популярность в соцсетях, а для кого-то предел мечтаний увидеть свое имя на книжной обложке.
AppleStoreCatalogID : 915329
Vendor : Apple:vendor_id:2017-915329

Video #1
ID : 1
Format : AVC
Format/Info : Advanced Video Codec
Format profile : High@L4
Format settings, CABAC : Yes
Format settings, ReFrames : 5 frames
Codec ID : avc1
Codec ID/Info : Advanced Video Coding
Duration : 1h 33mn
Bit rate : 4 748 Kbps
Width : 1 920 pixels
Height : 806 pixels
Display aspect ratio : 2.40:1
Frame rate mode : Constant
Frame rate : 25.000 fps
Color space : YUV
Chroma subsampling : 4:2:0
Bit depth : 8 bits
Scan type : Progressive
Bits/(Pixel*Frame) : 0.123
Stream size : 3.10 GiB (90%)
Title : Main Program
Language : Russian
Encoded date : UTC 2017-09-08 17:15:32
Tagged date : UTC 2017-09-08 17:15:38
Color range : Limited
Color primaries : BT.709
Transfer characteristics : BT.709
Matrix coefficients : BT.709

Video #2
ID : 5
Format : JPEG
Codec ID : jpeg
Duration : 1h 33mn
Bit rate mode : Variable
Bit rate : 1 062 bps
Width : 640 pixels
Height : 268 pixels
Display aspect ratio : 2.40:1
Frame rate mode : Variable
Frame rate : 0.003 fps
Minimum frame rate : 0.002 fps
Maximum frame rate : 0.004 fps
Color space : YUV
Chroma subsampling : 4:2:0
Bit depth : 8 bits
Compression mode : Lossy
Bits/(Pixel*Frame) : 2.064
Stream size : 691 KiB (0%)
Title : Chapter Images
Language : Russian
Encoded date : UTC 2017-09-08 17:15:46
Tagged date : UTC 2017-09-08 17:15:46

Audio #1
ID : 2
Format : AAC
Format/Info : Advanced Audio Codec
Format profile : LC
Codec ID : 40
Duration : 1h 33mn
Bit rate mode : Variable
Bit rate : 157 Kbps
Maximum bit rate : 263 Kbps
Channel(s) : 2 channels
Channel positions : Front: L R
Sampling rate : 48.0 KHz
Compression mode : Lossy
Stream size : 105 MiB (3%)
Title : Russian Stereo
Language : Russian
Encoded date : UTC 2017-09-08 17:15:32
Tagged date : UTC 2017-09-08 17:15:39

Audio #2
ID : 3
Format : AC-3
Format/Info : Audio Coding 3
Mode extension : CM (complete main)
Format settings, Endianness : Big
Codec ID : ac-3
Duration : 1h 33mn
Bit rate mode : Constant
Bit rate : 384 Kbps
Channel(s) : 6 channels
Channel positions : Front: L C R, Side: L R, LFE
Sampling rate : 48.0 KHz
Bit depth : 16 bits
Compression mode : Lossy
Stream size : 257 MiB (7%)
Title : Russian DD 5.1
Language : Russian
Encoded date : UTC 2017-09-08 17:15:32
Tagged date : UTC 2017-09-08 17:15:38

Menu #1
00:00:00.000 : 1
00:06:41.160 : 2
00:12:34.440 : 3
00:18:59.039 : 4
00:23:31.358 : 5
00:28:01.838 : 6
00:33:24.397 : 7
00:39:58.157 : 8
00:46:12.316 : 9
00:51:26.595 : 10
00:58:21.995 : 11
01:04:05.955 : 12
01:10:08.634 : 13
01:16:05.394 : 14
01:21:12.234 : 15
01:25:52.834 : 16

Menu #2
ID : 4
Codec ID : text
Duration : 1h 33mn
Language : Russian
Encoded date : UTC 2017-09-08 17:15:40
Tagged date : UTC 2017-09-08 17:15:40
00:00:00.000 : 1
00:06:41.160 : 2
00:12:34.440 : 3
00:18:59.039 : 4
00:23:31.358 : 5
00:28:01.838 : 6
00:33:24.397 : 7
00:39:58.157 : 8
00:46:12.316 : 9
00:51:26.595 : 10
00:58:21.995 : 11
01:04:05.955 : 12
01:10:08.634 : 13
01:16:05.394 : 14
01:21:12.234 : 15
01:25:52.834 : 16
Bit rate mode : VBR
Релиз подготовлен для просмотра на Apple TV, iPad, iPhone, iPod Touch.
Для просмотра данного релиза на компьютере с ОС Windows рекомендуется использовать VLC media player

Трекер:  [ 08-Сен-2017 20:42 ]

  

Скачать .torrent

Размер .torrent файла 35 KB


Размер: 3.46 GB
Хэш (hash) релиза: fb9019fe9410d441bb54f0637709200ed7edcafa

Еще никто не оставлял запись к записи скачать торрент [ATV3] Графомафия . Будь первым!

!Обратная связь