Скачать через торрент Намедни в караоке Фильм бесплатно в хорошем качестве torrent

Скачивайте на UnionPeer.org фильмы через торрент без регистрации. Новинки кино в хорошем качестве через торрент. На UnionPeer.org можно скачать через торрент фильмы 2014 и 2015 годов. Самые новые фильмы.

Скачать торрент Намедни в караоке бесплатно через .torrent фильм мультфильм сериал

Если у вас наблюдаются проблемы со скриншотами, переходом по ссылками, скачиванием торрентов - проблемы в блокировщике рекламы AdBlock. #хорошегоДня!


Статистика раздачи
Размер:  2.95 GB   |    Зарегистрирован:  13 дней   |    .torrent скачан:  3 раза   |   
Раздают:  1  
   
Загрузка...
 
Автор Сообщение

Galfimbul

avatar Galfimbul


Намедни в караоке

Дата/Год выпуска: 2017
Страна: Россия
Жанр: музыкальное шоу
Продолжительность: 10x25 мин.
Перевод: Не требуется
Русские субтитры: нет

Оригинальная аудиодорожка: русский
Режиссер: Леонид Парфенов
Телеканал: RTV International (RTVi)Описание: Легенда российского телевидения Леонид Парфенов возвращается на экраны с новым проектом «Намедни в караоке». Один год — одна песня и интересный гость в студии. Исторические события, личные воспоминания, и, конечно, любимые хиты.Сэмпл: http://sendfile.su/1360526

качество: WEB-DLRip
формат: AVI
Видео: Xvid 720x400 (16:9) ~1536kbps 25fps
Аудио: MP3 192kbps 48kHz 2ch
01. В гостях Юрий Стоянов.
02. В гостях Леонид Ярмольник.
03. В гостях Максим Виторган.
04. В гостях Михаил Боярский.
05. В гостях Андрей Макаревич.
06. В гостях Дмитрий Певцов.
07. В гостях Владислав Третьяк.
08. В гостях Максим Аверин.
09. В гостях Алексей Кортнев.
10. В гостях Ефим Шифрин.
GeneralComplete name : E:\Мои раздачи\Телепрограммы\Намедни в караоке\Намедни в караоке (выпуск 01).aviFormat : AVIFormat/Info : Audio Video InterleaveFile size : 360 MiBDuration : 29 min 2 sOverall bit rate : 1 735 kb/s

VideoID : 0Format : MPEG-4 VisualFormat profile : Advanced Simple@L5Format settings, BVOP : 2Format settings, QPel : NoFormat settings, GMC : No warppointsFormat settings, Matrix : Default (H.263)Codec ID : XVIDCodec ID/Hint : XviDDuration : 29 min 2 sBit rate : 1 533 kb/sWidth : 720 pixelsHeight : 400 pixelsDisplay aspect ratio : 16:9Frame rate : 25.000 FPSColor space : YUVChroma subsampling : 4:2:0Bit depth : 8 bitsScan type : ProgressiveCompression mode : LossyBits/(Pixel*Frame) : 0.213Stream size : 318 MiB (88%)Writing library : XviD 73

AudioID : 1Format : MPEG AudioFormat version : Version 1Format profile : Layer 3Mode : Joint stereoCodec ID : 55Codec ID/Hint : MP3Duration : 29 min 2 sBit rate mode : ConstantBit rate : 192 kb/sChannel(s) : 2 channelsSampling rate : 48.0 kHzCompression mode : LossyStream size : 39.9 MiB (11%)Alignment : Split accross interleavesInterleave, duration : 40 ms (1.00 video frame)Interleave, preload duration : 500 ms


Трекер:  [ 08-Сен-2017 19:42 ]

  

Скачать .torrent

Размер .torrent файла 16 KB


Размер: 2.95 GB
Хэш (hash) релиза: 591b1a4db0143640bac40a990c74598f4ab82966
Подписка на обновления:

Еще никто не оставлял запись к записи скачать торрент Намедни в караоке . Будь первым!

!Обратная связь